<?xml version="1.0" standalone="no"?>
<!DOCTYPE svg PUBLIC "-//W3C//DTD SVG 1.1//EN" "http://www.w3.org/Graphics/SVG/1.1/DTD/svg11.dtd" >
<svg>
<metadata>
Created by FontForge 20110222 at Fri May 30 09:40:17 2014
 By Orthosie Webhosting
Copyright (C) 2001, 2008 Hoefler &#38; Frere-Jones. http://www.typography.com
</metadata>
<defs>
<font id="GothamLight" horiz-adv-x="400" >
  <font-face 
    font-family="GothamLight"
    font-weight="300"
    font-stretch="normal"
    units-per-em="1000"
    panose-1="0 0 0 0 0 0 0 0 0 0"
    ascent="800"
    descent="-200"
    x-height="510"
    cap-height="700"
    bbox="-210 -225 1145 986"
    underline-thickness="50"
    underline-position="-50"
    unicode-range="U+0020-FB04"
  />
<missing-glyph horiz-adv-x="500" 
d="M0 800h500v-1000h-500v1000zM250 360l179 390h-358zM222 300l-172 376v-752zM278 300l172 -376v752zM71 -150h358l-179 390z" />
    <glyph glyph-name="f_f" unicode="ff" horiz-adv-x="724" 
d="M485 465h-74v45h74v50q0 88 45 133q40 40 107 40q23 0 41 -3t35 -9v-46q-22 7 -39 10t-37 3q-103 0 -103 -129v-49h178v-45h-178v-465h-49v465zM123 465h-74v45h74v50q0 88 45 133q40 40 107 40q23 0 41 -3t35 -9v-46q-22 7 -39 10t-37 3q-103 0 -103 -129v-49h178v-45
h-178v-465h-49v465z" />
    <glyph glyph-name="fi" unicode="fi" horiz-adv-x="611" 
d="M123 465h-74v45h74v50q0 88 45 133q40 40 107 40q23 0 41 -3t35 -9v-46q-22 7 -39 10t-37 3q-103 0 -103 -129v-49h178v-45h-178v-465h-49v465zM462 510h49v-510h-49v510zM456 710h61v-67h-61v67z" />
    <glyph glyph-name="fl" unicode="fl" horiz-adv-x="611" 
d="M123 465h-74v45h74v50q0 88 45 133q40 40 107 40q23 0 41 -3t35 -9v-46q-22 7 -39 10t-37 3q-103 0 -103 -129v-49h178v-45h-178v-465h-49v465zM462 730h49v-730h-49v730z" />
    <glyph glyph-name="f_f_i" unicode="ffi" horiz-adv-x="973" 
d="M485 465h-74v45h74v50q0 88 45 133q40 40 107 40q23 0 41 -3t35 -9v-46q-22 7 -39 10t-37 3q-103 0 -103 -129v-49h178v-45h-178v-465h-49v465zM123 465h-74v45h74v50q0 88 45 133q40 40 107 40q23 0 41 -3t35 -9v-46q-22 7 -39 10t-37 3q-103 0 -103 -129v-49h178v-45
h-178v-465h-49v465zM824 510h49v-510h-49v510zM818 710h61v-67h-61v67z" />
    <glyph glyph-name="f_f_l" unicode="ffl" horiz-adv-x="973" 
d="M485 465h-74v45h74v50q0 88 45 133q40 40 107 40q23 0 41 -3t35 -9v-46q-22 7 -39 10t-37 3q-103 0 -103 -129v-49h178v-45h-178v-465h-49v465zM123 465h-74v45h74v50q0 88 45 133q40 40 107 40q23 0 41 -3t35 -9v-46q-22 7 -39 10t-37 3q-103 0 -103 -129v-49h178v-45
h-178v-465h-49v465zM824 730h49v-730h-49v730z" />
    <glyph glyph-name=".notdef" horiz-adv-x="500" 
d="M0 800h500v-1000h-500v1000zM250 360l179 390h-358zM222 300l-172 376v-752zM278 300l172 -376v752zM71 -150h358l-179 390z" />
    <glyph glyph-name=".null" horiz-adv-x="0" 
 />
    <glyph glyph-name="nonmarkingreturn" horiz-adv-x="300" 
 />
    <glyph glyph-name="space" unicode=" " horiz-adv-x="300" 
 />
    <glyph glyph-name="exclam" unicode="!" horiz-adv-x="252" 
d="M97 630v70h58v-70l-15 -447h-28zM93 85h66v-85h-66v85z" />
    <glyph glyph-name="quotedbl" unicode="&#x22;" horiz-adv-x="410" 
d="M283 700h65v-5l-71 -249h-29zM103 700h65v-5l-71 -249h-29z" />
    <glyph glyph-name="numbersign" unicode="#" horiz-adv-x="700" 
d="M610 187h-137l-32 -187h-48l32 187h-207l-32 -187h-48l32 187h-121v47h129l40 236h-129v47h137l32 183h48l-31 -183h207l31 183h48l-32 -183h121v-47h-129l-40 -236h129v-47zM226 234h207l40 236h-207z" />
    <glyph glyph-name="dollar" unicode="$" horiz-adv-x="632" 
d="M505 577q-40 35 -79 53t-83 23v-281q114 -24 165 -69t51 -118q0 -40 -16 -73t-44.5 -57.5t-67.5 -39t-86 -15.5v-98h-48v99q-69 6 -126 32.5t-111 74.5l33 39q47 -45 95.5 -70t110.5 -31v285q-56 12 -96.5 29t-66 40t-37.5 52t-12 67t15.5 70.5t43.5 56.5t66.5 38.5
t84.5 15.5v58h48v-60q58 -5 103 -25.5t90 -56.5zM508 181q0 25 -7 46t-26 38t-51 31t-81 25v-276q37 1 67.5 11.5t52.5 28.5t33.5 42.5t11.5 53.5zM138 523q0 -25 6.5 -45.5t24.5 -38t49.5 -31.5t80.5 -26v273q-36 -1 -66 -11.5t-51 -28.5t-32.5 -41.5t-11.5 -50.5z" />
    <glyph glyph-name="percent" unicode="%" horiz-adv-x="824" 
d="M208 350q-35 0 -63 14.5t-48 39t-31 56.5t-11 67v2q0 35 11 67.5t31.5 57t49 39.5t63.5 15q34 0 62.5 -14.5t48.5 -39.5t31 -57t11 -66v-2q0 -35 -11 -67.5t-31.5 -57.5t-49 -39.5t-63.5 -14.5zM208 665q-22 0 -40.5 -10.5t-32 -29t-21 -43t-7.5 -51.5v-2q0 -30 8 -55
t22.5 -43t33 -28t39.5 -10q22 0 40.5 10.5t32 28.5t21 42.5t7.5 52.5v2q0 29 -8 54t-22.5 43t-33 28.5t-39.5 10.5zM642 700h54l-267 -363l-247 -337h-54l265 360zM614 -8q-35 0 -63 14.5t-48 39t-31 56.5t-11 67v2q0 35 11 67.5t31.5 57t49 39.5t63.5 15q34 0 62.5 -14.5
t48.5 -39.5t31 -57t11 -66v-2q0 -35 -11 -67.5t-31.5 -57.5t-49 -39.5t-63.5 -14.5zM616 35q22 0 40.5 10.5t32 28.5t21 42.5t7.5 52.5v2q0 29 -8 54t-22.5 43t-33 28.5t-39.5 10.5q-22 0 -40.5 -10.5t-32 -29t-21 -43t-7.5 -51.5v-2q0 -30 8 -55t22.5 -43t33 -28t39.5 -10z
" />
    <glyph glyph-name="ampersand" unicode="&#x26;" horiz-adv-x="696" 
d="M501 111q-50 -58 -108 -89.5t-129 -31.5q-46 0 -85.5 14.5t-68 40t-45 61t-16.5 78.5v2q0 71 47.5 122t133.5 83q-40 44 -59 80t-19 80v2q0 34 13 63t36 50.5t55.5 33.5t70.5 12q34 0 63.5 -12t51 -32.5t34 -48.5t12.5 -59v-2q0 -66 -45.5 -109.5t-126.5 -71.5l184 -189
q26 36 48.5 79t42.5 91l47 -19q-24 -54 -49.5 -101t-54.5 -85l129 -133l-41 -34zM285 409q151 48 151 147v2q0 47 -31.5 78.5t-79.5 31.5q-54 0 -87.5 -32.5t-33.5 -80.5v-2q0 -17 4 -32t13.5 -31.5t25 -36t38.5 -44.5zM265 35q59 0 109 29.5t94 80.5l-207 214
q-84 -29 -122 -74.5t-38 -96.5v-2q0 -32 12 -59.5t34 -48t52 -32t66 -11.5z" />
    <glyph glyph-name="quotesingle" unicode="'" horiz-adv-x="230" 
d="M103 700h65v-5l-71 -249h-29z" />
    <glyph glyph-name="parenleft" unicode="(" horiz-adv-x="430" 
d="M348 -141q-133 75 -205 183t-72 245t72 245t205 183l21 -33q-119 -73 -182.5 -171t-63.5 -224t63.5 -224t182.5 -171l-21 -33v0z" />
    <glyph glyph-name="parenright" unicode=")" horiz-adv-x="430" 
d="M61 -108q119 73 182.5 171t63.5 224t-63.5 224t-182.5 171l21 33q133 -75 205 -183t72 -245t-72 -245t-205 -183z" />
    <glyph glyph-name="asterisk" unicode="*" horiz-adv-x="430" 
d="M203 533l-106 -72l-22 37l118 56l-118 56l22 37l106 -72l-9 127h42l-9 -127l106 72l22 -37l-118 -56l118 -56l-22 -37l-106 72l9 -127h-42z" />
    <glyph glyph-name="plus" unicode="+" horiz-adv-x="620" 
d="M285 328h-217v48h217v215h50v-215h217v-48h-217v-215h-50v215z" />
    <glyph glyph-name="comma" unicode="," horiz-adv-x="230" 
d="M53 -82q32 17 45 35t11 47h-27v85h66v-74q0 -47 -19 -74t-64 -44z" />
    <glyph glyph-name="hyphen" unicode="-" horiz-adv-x="408" 
d="M70 325h268v-56h-268v56z" />
    <glyph glyph-name="period" unicode="." horiz-adv-x="230" 
d="M82 85h66v-85h-66v85z" />
    <glyph glyph-name="slash" unicode="/" horiz-adv-x="500" 
d="M454 798h49l-472 -926h-49z" />
    <glyph glyph-name="zero" unicode="0" horiz-adv-x="710" 
d="M354 -12q-67 0 -120.5 29t-91 78.5t-57.5 115t-20 137.5v2q0 72 20.5 138t58.5 115.5t91.5 79t120.5 29.5t120.5 -29t91 -78.5t57.5 -115t20 -137.5v-2q0 -72 -20.5 -138t-58.5 -115.5t-91.5 -79t-120.5 -29.5zM356 35q54 0 97.5 26t74 69.5t47 100t16.5 117.5v2
q0 61 -16.5 118t-47.5 100.5t-75 70t-98 26.5t-97.5 -26t-74 -69.5t-47 -100t-16.5 -117.5v-2q0 -61 16.5 -117.5t47.5 -100.5t75 -70.5t98 -26.5z" />
    <glyph glyph-name="one" unicode="1" horiz-adv-x="335" 
d="M179 651l-135 -46l-14 41l160 59h40v-705h-51v651z" />
    <glyph glyph-name="two" unicode="2" horiz-adv-x="590" 
d="M48 39l261 236q43 39 72.5 71t48 60t26.5 54t8 54q0 34 -13 62t-34.5 47.5t-50.5 30t-60 10.5q-67 0 -114 -33.5t-91 -96.5l-39 26q23 35 47.5 62.5t54 47t65.5 30t82 10.5q45 0 83 -14.5t65.5 -40.5t43.5 -61t16 -76v-2q0 -36 -10 -67.5t-31.5 -63t-54.5 -65.5t-79 -76
l-214 -194h396v-50h-478v39z" />
    <glyph glyph-name="three" unicode="3" horiz-adv-x="610" 
d="M311 -12q-86 0 -150 35t-107 91l40 33q42 -54 95.5 -83t122.5 -29q35 0 66.5 11.5t55 31.5t37.5 48.5t14 63.5v2q0 37 -16.5 65t-45.5 47.5t-69 29.5t-87 10h-38l-13 29l241 278h-367v49h438v-37l-237 -271q50 -3 95 -16.5t79 -37.5t54 -60t20 -84v-2q0 -46 -18.5 -83.5
t-50 -64.5t-73 -41.5t-86.5 -14.5z" />
    <glyph glyph-name="four" unicode="4" horiz-adv-x="664" 
d="M445 171h-379l-18 39l400 495h47v-489h114v-45h-114v-171h-50v171zM445 216v414l-334 -414h334z" />
    <glyph glyph-name="five" unicode="5" horiz-adv-x="605" 
d="M302 -12q-72 0 -135.5 33t-109.5 80l37 37q48 -48 101 -75.5t109 -27.5q42 0 76.5 13.5t59 37.5t38.5 56t14 69v2q0 36 -14 66.5t-39.5 52.5t-61 34.5t-77.5 12.5q-49 0 -87 -13t-71 -31l-40 26l20 339h393v-50h-347l-17 -262q34 17 70 27.5t85 10.5q51 0 94.5 -15.5
t76 -43t51 -66.5t18.5 -86v-2q0 -50 -18.5 -91t-51 -71t-77 -46.5t-97.5 -16.5z" />
    <glyph glyph-name="six" unicode="6" horiz-adv-x="642" 
d="M331 -12q-54 0 -100 19t-78 51q-22 22 -38.5 47t-28 57t-17 73.5t-5.5 95.5v2q0 79 20 148t57 120.5t90 81t118 29.5q60 0 108 -21.5t94 -59.5l-33 -40q-41 36 -82 55t-91 19q-53 0 -95.5 -26t-72 -71.5t-45.5 -108.5t-16 -137v-20q37 63 90.5 96.5t128.5 33.5
q48 0 91.5 -15.5t76.5 -43.5t53 -67t20 -86v-2q0 -50 -19 -92t-52 -72.5t-77.5 -48t-96.5 -17.5zM335 35q42 0 76.5 14.5t59 39t38 57.5t13.5 70v2q0 36 -14 66.5t-39.5 53t-60 35.5t-76.5 13q-43 0 -79 -15t-61.5 -39.5t-40 -55.5t-14.5 -63v-2q0 -38 15 -70t41.5 -55.5
t63 -37t78.5 -13.5z" />
    <glyph glyph-name="seven" unicode="7" horiz-adv-x="587" 
d="M474 650h-406v50h464v-38l-319 -662h-57z" />
    <glyph glyph-name="eight" unicode="8" horiz-adv-x="630" 
d="M315 -10q-55 0 -102.5 14.5t-82.5 40.5t-55 62t-20 80v2q0 31 12 57.5t32.5 48.5t49 39t61.5 28q-26 10 -49.5 25.5t-41.5 35.5t-29 45.5t-11 56.5v2q0 41 20 74.5t53 57.5t75.5 37.5t87.5 13.5t87.5 -13.5t75.5 -37.5t53 -57.5t20 -74.5v-2q0 -31 -11 -56.5t-29 -45.5
t-41.5 -35.5t-49.5 -25.5q33 -11 61.5 -28t49 -39t32.5 -48.5t12 -57.5v-2q0 -44 -20 -80t-55 -62t-82.5 -40.5t-102.5 -14.5zM315 381q37 0 70 10.5t58 29.5t39.5 45.5t14.5 58.5v2q0 30 -14 55t-38.5 43t-58 28t-71.5 10t-71.5 -10t-58 -28t-38.5 -43t-14 -55v-2
q0 -32 14.5 -58.5t39.5 -45.5t58 -29.5t70 -10.5zM315 37q48 0 86.5 12t65 32.5t40.5 47t14 56.5v2q0 33 -16 60.5t-44 47.5t-65.5 31t-80.5 11t-80.5 -11t-65.5 -31t-44 -47.5t-16 -60.5v-2q0 -30 14 -56.5t40.5 -47t65 -32.5t86.5 -12z" />
    <glyph glyph-name="nine" unicode="9" horiz-adv-x="642" 
d="M294 35q52 0 95 26t73.5 71t47 105.5t16.5 130.5v27q-35 -62 -89 -98t-129 -36q-53 0 -97.5 16.5t-76.5 45.5t-50 68t-18 84v2q0 48 18 91t50.5 75t77.5 50.5t100 18.5q57 0 101.5 -19.5t76.5 -51.5q20 -20 36.5 -45.5t28 -58.5t17.5 -75t6 -94v-2q0 -83 -21.5 -152
t-60 -119.5t-90.5 -78.5t-113 -28q-66 0 -116.5 25t-94.5 62l33 40q45 -40 88 -60t91 -20zM310 307q45 0 81 15.5t61.5 40.5t39 57t13.5 65v2q0 37 -15 69.5t-41 56.5t-63 38t-80 14t-77.5 -15.5t-58.5 -41t-37 -59.5t-13 -70v-2q0 -37 14 -68t39.5 -53.5t60 -35.5t76.5 -13
z" />
    <glyph glyph-name="colon" unicode=":" horiz-adv-x="240" 
d="M87 510h66v-85h-66v85zM87 85h66v-85h-66v85z" />
    <glyph glyph-name="semicolon" unicode=";" horiz-adv-x="240" 
d="M87 510h66v-85h-66v85zM58 -82q32 17 45 35t11 47h-27v85h66v-74q0 -47 -19 -74t-64 -44z" />
    <glyph glyph-name="less" unicode="&#x3c;" horiz-adv-x="620" 
d="M63 332v40l464 241v-54l-403 -206l403 -208v-54z" />
    <glyph glyph-name="equal" unicode="=" horiz-adv-x="620" 
d="M83 490h454v-51h-454v51zM83 265h454v-51h-454v51z" />
    <glyph glyph-name="greater" unicode="&#x3e;" horiz-adv-x="620" 
d="M93 145l403 206l-403 208v54l464 -241v-40l-464 -241v54z" />
    <glyph glyph-name="question" unicode="?" horiz-adv-x="534" 
d="M216 345l5 5q100 2 154 45t54 115v2q0 31 -11.5 58.5t-33 48t-52.5 32.5t-69 12q-60 0 -107 -27.5t-86 -75.5l-36 30q43 53 97 86t134 33q49 0 89.5 -15.5t68.5 -42t43.5 -62t15.5 -75.5v-2q0 -47 -17 -82.5t-45.5 -61t-67.5 -40.5t-82 -20l-9 -125h-32zM212 85h66v-85
h-66v85z" />
    <glyph glyph-name="at" unicode="@" horiz-adv-x="980" 
d="M499 -162q-96 0 -177.5 34.5t-141.5 94t-93.5 138.5t-33.5 169t34 169.5t93 139t139 94.5t172 35t171.5 -32t138.5 -86.5t92.5 -126.5t33.5 -151q0 -64 -16.5 -110t-42.5 -75.5t-58.5 -43.5t-64.5 -14q-53 0 -88 25t-48 68q-15 -19 -32.5 -36t-38.5 -29.5t-45.5 -20
t-54.5 -7.5q-36 0 -68.5 13t-56.5 36.5t-38 56t-14 72.5q0 54 20.5 99.5t54 78.5t75 52t83.5 19q30 0 54 -7.5t42 -20.5t31 -29t22 -32l14 75l48 -6l-37 -211q-9 -53 -9 -72q0 -43 23.5 -65.5t66.5 -22.5q26 0 52 12t46.5 37t33 64.5t12.5 93.5q0 69 -30.5 134.5
t-84.5 116.5t-127.5 82t-159.5 31q-87 0 -161 -32t-128 -87.5t-84.5 -129t-30.5 -157.5t30.5 -157.5t85 -128.5t130.5 -86.5t166 -31.5q75 0 133.5 17t116.5 51l15 -25q-58 -35 -122.5 -55t-142.5 -20zM446 120q33 0 64 14.5t55 38.5q28 28 44.5 64.5t16.5 75.5q0 30 -10 55
t-27.5 44t-42 29.5t-52.5 10.5q-33 0 -64.5 -14t-57.5 -40t-42.5 -63t-16.5 -80q0 -64 37 -99.5t96 -35.5z" />
    <glyph glyph-name="A" unicode="A" horiz-adv-x="790" 
d="M370 705h50l326 -705h-57l-89 196h-413l-89 -196h-54zM578 243l-184 405l-185 -405h369z" />
    <glyph glyph-name="B" unicode="B" horiz-adv-x="722" 
d="M104 700h289q60 0 106.5 -16.5t75.5 -45.5q45 -45 45 -110v-2q0 -36 -10.5 -63t-27.5 -47t-38.5 -33.5t-42.5 -22.5q31 -8 60 -21.5t50.5 -34t34.5 -48t13 -63.5v-2q0 -44 -18 -79.5t-51 -60t-79 -38t-103 -13.5h-304v700zM567 523q0 58 -45 93.5t-130 35.5h-236v-275
h231q39 0 72 9.5t57 27.5t37.5 45t13.5 62v2zM606 193q0 65 -54.5 100.5t-158.5 35.5h-237v-281h254q90 0 143 38.5t53 104.5v2z" />
    <glyph glyph-name="C" unicode="C" horiz-adv-x="738" 
d="M421 -12q-75 0 -139 28t-110.5 76.5t-72.5 114.5t-26 141v2q0 74 26.5 140t73 115.5t110.5 78t140 28.5q47 0 85 -8t70.5 -23t61 -35.5t55.5 -45.5l-37 -38q-23 22 -48 41t-53.5 32.5t-62 21.5t-72.5 8q-63 0 -117 -24t-93.5 -66.5t-62 -99.5t-22.5 -123v-2
q0 -66 23 -123.5t62.5 -100t93.5 -67t117 -24.5q76 0 132 28t109 81l35 -34q-28 -27 -57.5 -49.5t-63 -38.5t-72.5 -25t-85 -9z" />
    <glyph glyph-name="D" unicode="D" horiz-adv-x="782" 
d="M104 700h233q82 0 150.5 -26.5t118 -73.5t76.5 -110.5t27 -137.5v-2q0 -74 -27 -138t-76.5 -111t-118 -74t-150.5 -27h-233v700zM156 652v-604h181q73 0 132 23.5t100 64t63.5 95t22.5 117.5v2q0 62 -22.5 117t-63.5 96t-100 65t-132 24h-181z" />
    <glyph glyph-name="E" unicode="E" horiz-adv-x="670" 
d="M104 700h498v-48h-446v-275h401v-48h-401v-281h451v-48h-503v700z" />
    <glyph glyph-name="F" unicode="F" horiz-adv-x="656" 
d="M104 700h493v-48h-441v-287h396v-48h-396v-317h-52v700z" />
    <glyph glyph-name="G" unicode="G" horiz-adv-x="784" 
d="M425 -12q-83 0 -148.5 28.5t-110.5 77.5t-69 114.5t-24 139.5v2q0 71 24.5 136.5t70 115.5t109.5 80t142 30q43 0 78.5 -6t66 -18t58 -29t53.5 -39l-34 -39q-41 36 -93.5 60t-131.5 24q-64 0 -117 -25t-91.5 -68t-59.5 -100t-21 -120v-2q0 -68 20.5 -126t59.5 -100
t94.5 -66t125.5 -24q33 0 65 6.5t60.5 17.5t53.5 25.5t44 30.5v201h-234v48h284v-270q-48 -42 -118.5 -73.5t-156.5 -31.5z" />
    <glyph glyph-name="H" unicode="H" horiz-adv-x="760" 
d="M104 700h52v-324h448v324h52v-700h-52v328h-448v-328h-52v700z" />
    <glyph glyph-name="I" unicode="I" horiz-adv-x="274" 
d="M111 700h52v-700h-52v700z" />
    <glyph glyph-name="J" unicode="J" horiz-adv-x="549" 
d="M249 -10q-78 0 -129 36.5t-83 94.5l43 27q16 -27 33.5 -48t38 -35t45 -21t55.5 -7q32 0 60 12t48.5 35.5t32 58.5t11.5 81v476h52v-472q0 -61 -17.5 -107t-46.5 -75q-28 -28 -64.5 -42t-78.5 -14z" />
    <glyph glyph-name="K" unicode="K" horiz-adv-x="715" 
d="M104 700h52v-460l446 460h71l-306 -309l319 -391h-68l-288 354l-174 -176v-178h-52v700z" />
    <glyph glyph-name="L" unicode="L" horiz-adv-x="619" 
d="M104 700h52v-652h411v-48h-463v700z" />
    <glyph glyph-name="M" unicode="M" horiz-adv-x="868" 
d="M104 700h49l281 -414l281 414h49v-700h-52v608l-277 -403h-4l-277 403v-608h-50v700z" />
    <glyph glyph-name="N" unicode="N" horiz-adv-x="790" 
d="M104 700h49l483 -609v609h50v-700h-39l-493 622v-622h-50v700z" />
    <glyph glyph-name="O" unicode="O" horiz-adv-x="850" 
d="M424 -12q-80 0 -144.5 29.5t-110.5 79t-71 114.5t-25 137v2q0 72 25.5 137.5t71.5 115.5t111 79.5t145 29.5q79 0 144 -29.5t111 -79t71 -114.5t25 -137v-2q0 -72 -25.5 -137.5t-71.5 -115.5t-111.5 -79.5t-144.5 -29.5zM426 35q65 0 119.5 24.5t94 67t61.5 99.5t22 122
v2q0 65 -22.5 122.5t-62 100t-94.5 67.5t-120 25t-119.5 -24.5t-94 -67t-61.5 -99.5t-22 -122v-2q0 -65 22.5 -122.5t62 -100t94.5 -67.5t120 -25z" />
    <glyph glyph-name="P" unicode="P" horiz-adv-x="668" 
d="M104 700h254q58 0 105.5 -14.5t82 -42t53.5 -67t19 -90.5v-2q0 -55 -22 -97t-59.5 -70t-87 -42t-104.5 -14h-189v-261h-52v700zM348 309q49 0 89 12t68.5 34.5t44.5 54.5t16 71v2q0 42 -15.5 73.5t-43.5 52.5t-67 32t-86 11h-198v-343h192z" />
    <glyph glyph-name="Q" unicode="Q" horiz-adv-x="850" 
d="M748 -21l-99 89q-45 -38 -101.5 -59t-123.5 -21q-80 0 -144.5 29.5t-110.5 79t-71 114.5t-25 137v2q0 72 25.5 137.5t71.5 115.5t111 79.5t145 29.5q79 0 144 -29.5t111 -79t71 -114.5t25 -137v-2q0 -70 -23.5 -133.5t-68.5 -113.5l100 -84zM426 35q54 0 101 17t85 49
l-136 116l37 41l134 -122q36 42 56 96t20 116v2q0 65 -22.5 122.5t-62 100t-94.5 67.5t-120 25t-119.5 -24.5t-94 -67t-61.5 -99.5t-22 -122v-2q0 -65 22.5 -122.5t62 -100t94.5 -67.5t120 -25z" />
    <glyph glyph-name="R" unicode="R" horiz-adv-x="723" 
d="M104 700h294q65 0 115 -18.5t82 -50.5q25 -25 39 -58.5t14 -71.5v-2q0 -44 -15.5 -78.5t-43 -59.5t-65 -40.5t-81.5 -21.5l231 -299h-66l-223 290h-229v-290h-52v700zM392 337q44 0 81.5 11t64.5 31.5t42.5 50t15.5 67.5v2q0 71 -52.5 112t-148.5 41h-239v-315h236z" />
    <glyph glyph-name="S" unicode="S" horiz-adv-x="640" 
d="M341 -10q-84 0 -151.5 28t-130.5 84l34 39q29 -27 57.5 -46.5t58.5 -32t63 -19t72 -6.5t72 10.5t56 29t36 44t13 55.5v2q0 28 -8.5 50t-31 40t-60.5 32.5t-98 26.5q-63 13 -108 30.5t-73.5 41t-41.5 54.5t-13 71v2q0 39 17 72.5t47 58.5t71 39t90 14q76 0 131.5 -21
t108.5 -64l-33 -41q-50 43 -100.5 61t-108.5 18q-39 0 -70.5 -10.5t-54 -28.5t-34.5 -42t-12 -51v-2q0 -28 8.5 -50.5t31 -41t62.5 -33.5t102 -28q122 -25 176 -70.5t54 -122.5v-2q0 -42 -17.5 -77.5t-48 -60.5t-73 -39t-93.5 -14z" />
    <glyph glyph-name="T" unicode="T" horiz-adv-x="648" 
d="M298 652h-244v48h540v-48h-244v-652h-52v652z" />
    <glyph glyph-name="U" unicode="U" horiz-adv-x="760" 
d="M380 -11q-63 0 -115.5 19.5t-91 58t-59.5 94.5t-21 130v409h52v-404q0 -125 62.5 -192.5t174.5 -67.5q53 0 96 16t73.5 48t47 80t16.5 111v409h52v-403q0 -75 -21 -132.5t-59 -96.5t-90.5 -59t-116.5 -20z" />
    <glyph glyph-name="V" unicode="V" horiz-adv-x="750" 
d="M44 700h58l274 -644l275 644h55l-308 -705h-46z" />
    <glyph glyph-name="W" unicode="W" horiz-adv-x="1102" 
d="M50 700h58l220 -623l205 625h40l205 -625l220 623h54l-254 -705h-42l-205 608l-205 -608h-42z" />
    <glyph glyph-name="X" unicode="X" horiz-adv-x="722" 
d="M661 700l-269 -343l279 -357h-62l-249 323l-248 -323h-61l278 357l-268 343h62l239 -309l238 309h61z" />
    <glyph glyph-name="Y" unicode="Y" horiz-adv-x="716" 
d="M332 277l-300 423h65l262 -376l263 376h62l-300 -422v-278h-52v277z" />
    <glyph glyph-name="Z" unicode="Z" horiz-adv-x="688" 
d="M68 29l479 624h-462v47h536v-29l-479 -624h479v-47h-553v29z" />
    <glyph glyph-name="bracketleft" unicode="[" horiz-adv-x="430" 
d="M98 700h273v-38h-227v-754h227v-38h-273v830z" />
    <glyph glyph-name="backslash" unicode="\" horiz-adv-x="500" 
d="M-3 798h49l472 -926h-49z" />
    <glyph glyph-name="bracketright" unicode="]" horiz-adv-x="430" 
d="M59 -92h227v754h-227v38h273v-830h-273v38z" />
    <glyph glyph-name="asciicircum" unicode="^" horiz-adv-x="500" 
d="M228 703h44l158 -210h-53l-128 167l-128 -167h-51z" />
    <glyph glyph-name="underscore" unicode="_" horiz-adv-x="600" 
d="M-2 -116h604v-44h-604v44z" />
    <glyph glyph-name="grave" unicode="`" horiz-adv-x="500" 
d="M157 698l61 30l88 -133h-42z" />
    <glyph glyph-name="a" unicode="a" horiz-adv-x="574" 
d="M248 -12q-36 0 -71 10t-63 30t-45.5 50t-17.5 70v2q0 40 16.5 71t45.5 52t70 32t91 11q54 0 93 -6t76 -16v22q0 78 -44.5 117t-123.5 39q-47 0 -86 -11.5t-74 -29.5l-18 43q42 20 85 32t96 12q105 0 161 -56q52 -52 52 -144v-318h-48v85q-13 -18 -31.5 -35.5t-42.5 -31
t-54.5 -22t-66.5 -8.5zM251 34q39 0 74 11.5t61.5 32t42 49.5t15.5 64v58q-32 8 -75 15.5t-98 7.5q-81 0 -124.5 -32.5t-43.5 -86.5v-2q0 -28 12 -49.5t32.5 -36.5t47.5 -23t56 -8z" />
    <glyph glyph-name="b" unicode="b" horiz-adv-x="660" 
d="M352 -12q-38 0 -70 10t-57.5 27t-46 39t-36.5 46v-110h-49v730h49v-334q16 25 37 48t46.5 40t57 27.5t69.5 10.5q46 0 90.5 -18t79.5 -52t56.5 -83.5t21.5 -111.5v-2q0 -62 -21.5 -111.5t-56.5 -84t-79.5 -53t-90.5 -18.5zM347 35q42 0 78.5 15t63.5 43t42.5 68.5
t15.5 91.5v2q0 50 -16 91t-43.5 69.5t-64 44t-76.5 15.5t-77.5 -16t-66.5 -45t-46.5 -69t-17.5 -89v-2q0 -49 17.5 -89.5t46.5 -69t66.5 -44.5t77.5 -16z" />
    <glyph glyph-name="c" unicode="c" horiz-adv-x="571" 
d="M318 -12q-55 0 -102.5 21.5t-82.5 57.5t-55 84t-20 102v2q0 54 20 102t55 85t82.5 58.5t102.5 21.5q36 0 65.5 -7.5t54.5 -20.5t45.5 -30t38.5 -36l-35 -36q-33 34 -73 59t-97 25q-44 0 -81.5 -17t-65 -46.5t-43.5 -69.5t-16 -86v-2q0 -46 16.5 -86.5t45 -70.5t66.5 -47
t82 -17q54 0 96.5 24.5t74.5 60.5l34 -30q-39 -44 -88.5 -72.5t-119.5 -28.5z" />
    <glyph glyph-name="d" unicode="d" horiz-adv-x="660" 
d="M308 -12q-46 0 -90.5 18t-79.5 52t-56.5 83.5t-21.5 111.5v2q0 62 21.5 111.5t56.5 84t79.5 53t90.5 18.5q38 0 70 -10t57.5 -27t46 -39t36.5 -46v330h49v-730h-49v114q-17 -25 -37.5 -48t-46 -40t-57 -27.5t-69.5 -10.5zM313 35q40 0 77.5 16t66.5 45t46.5 69t17.5 89v2
q0 49 -17.5 89.5t-46.5 69t-66.5 44.5t-77.5 16q-42 0 -78.5 -15t-63.5 -43t-42.5 -68.5t-15.5 -91.5v-2q0 -50 16 -91t43.5 -69.5t64 -44t76.5 -15.5z" />
    <glyph glyph-name="e" unicode="e" horiz-adv-x="584" 
d="M308 -12q-50 0 -95.5 19t-80 54t-54.5 84t-20 109v2q0 55 18.5 103.5t51 84.5t76.5 57t96 21q54 0 97 -20.5t73.5 -56.5t47 -84.5t16.5 -105.5v-10.5t-1 -9.5h-423q3 -48 21 -85t45 -63t61.5 -39.5t72.5 -13.5q60 0 101.5 23t73.5 57l34 -30q-39 -42 -88.5 -69
t-122.5 -27zM481 279q-3 39 -15.5 74.5t-35 63t-55.5 44t-77 16.5q-38 0 -71 -15t-57.5 -41.5t-40.5 -63t-19 -78.5h371z" />
    <glyph glyph-name="f" unicode="f" horiz-adv-x="362" 
d="M123 465h-74v45h74v50q0 88 45 133q40 40 107 40q23 0 41 -3t35 -9v-46q-22 7 -39 10t-37 3q-103 0 -103 -129v-49h178v-45h-178v-465h-49v465z" />
    <glyph glyph-name="g" unicode="g" horiz-adv-x="660" 
d="M317 -162q-129 0 -234 78l29 40q93 -72 206 -72q44 0 80.5 12.5t63 37.5t41.5 62t15 86v74q-17 -24 -38 -45t-47 -37.5t-58 -26t-70 -9.5q-46 0 -90 17t-78.5 48.5t-55.5 75.5t-21 99v2q0 55 21 100t55.5 76.5t78.5 48.5t90 17q38 0 70.5 -9.5t58.5 -25t47 -36.5t37 -43
v102h49v-431q0 -56 -17 -99t-48 -74q-33 -33 -80.5 -50.5t-104.5 -17.5zM310 85q40 0 78 14t67.5 39.5t47.5 61t18 79.5v2q0 44 -18 80t-47.5 61.5t-67.5 39t-78 13.5t-76 -13.5t-63 -38.5t-42.5 -60.5t-15.5 -80.5v-2q0 -43 16 -79t43 -61.5t63 -40t75 -14.5z" />
    <glyph glyph-name="h" unicode="h" horiz-adv-x="613" 
d="M93 730h49v-315q26 45 70 76t114 31q48 0 86 -15.5t64.5 -43.5t40 -66.5t13.5 -84.5v-312h-49v303q0 79 -42 126.5t-120 47.5q-38 0 -70 -13.5t-56 -37.5t-37.5 -57.5t-13.5 -73.5v-295h-49v730z" />
    <glyph glyph-name="i" unicode="i" horiz-adv-x="249" 
d="M94 710h61v-67h-61v67zM100 510h49v-510h-49v510z" />
    <glyph glyph-name="j" unicode="j" horiz-adv-x="249" 
d="M94 710h61v-67h-61v67zM40 -163q-21 0 -41 4v43q9 -2 20.5 -2.5t19.5 -0.5q27 0 44 17.5t17 53.5v558h49v-555q0 -60 -29.5 -89t-79.5 -29z" />
    <glyph glyph-name="k" unicode="k" horiz-adv-x="560" 
d="M93 730h49v-547l316 327h65l-223 -226l230 -284h-62l-202 249l-124 -125v-124h-49v730z" />
    <glyph glyph-name="l" unicode="l" horiz-adv-x="249" 
d="M100 730h49v-730h-49v730z" />
    <glyph glyph-name="m" unicode="m" horiz-adv-x="951" 
d="M93 510h49v-91q12 20 27.5 38.5t35.5 33t46.5 23t60.5 8.5q33 0 60.5 -9t48.5 -24t36.5 -35t26.5 -42q12 21 29 41t39.5 35.5t51 24.5t64.5 9q45 0 81.5 -15.5t62 -43t39 -67t13.5 -87.5v-309h-49v303q0 83 -40 128.5t-111 45.5q-32 0 -61.5 -12t-51.5 -35t-35 -56.5
t-13 -76.5v-297h-49v306q0 80 -40 125.5t-109 45.5q-34 0 -64 -14t-52 -39t-34.5 -58t-12.5 -72v-294h-49v510z" />
    <glyph glyph-name="n" unicode="n" horiz-adv-x="613" 
d="M93 510h49v-95q26 45 70 76t114 31q48 0 86 -15.5t64.5 -43.5t40 -66.5t13.5 -84.5v-312h-49v303q0 79 -42 126.5t-120 47.5q-38 0 -70 -13.5t-56 -37.5t-37.5 -57.5t-13.5 -73.5v-295h-49v510z" />
    <glyph glyph-name="o" unicode="o" horiz-adv-x="640" 
d="M319 -12q-57 0 -104.5 21.5t-82.5 57.5t-54.5 84t-19.5 102v2q0 54 19.5 102t55 85t83.5 58.5t105 21.5t104.5 -21.5t82.5 -57.5t54.5 -84t19.5 -102v-2q0 -54 -19.5 -102t-55 -85t-83.5 -58.5t-105 -21.5zM321 34q45 0 83.5 17.5t66 47t43 69.5t15.5 85v2q0 46 -16 86.5
t-44.5 70.5t-67 47t-82.5 17q-45 0 -83.5 -17.5t-66 -47t-43 -69.5t-15.5 -85v-2q0 -46 16 -86.5t44.5 -70.5t67 -47t82.5 -17z" />
    <glyph glyph-name="p" unicode="p" horiz-adv-x="660" 
d="M93 510h49v-114q16 25 37 48t46.5 40t57 27.5t69.5 10.5q46 0 90.5 -18t79.5 -52t56.5 -83.5t21.5 -111.5v-2q0 -62 -21.5 -111.5t-56.5 -84t-79.5 -53t-90.5 -18.5q-38 0 -70 10t-57.5 27t-46 39t-36.5 46v-270h-49v670zM347 35q42 0 78.5 15t63.5 43t42.5 68.5
t15.5 91.5v2q0 50 -16 91t-43.5 69.5t-64 44t-76.5 15.5t-77.5 -16t-66.5 -45t-46.5 -69t-17.5 -89v-2q0 -49 17.5 -89.5t46.5 -69t66.5 -44.5t77.5 -16z" />
    <glyph glyph-name="q" unicode="q" horiz-adv-x="660" 
d="M518 114q-17 -25 -37.5 -48t-46 -40t-57 -27.5t-69.5 -10.5q-46 0 -90.5 18t-79.5 52t-56.5 83.5t-21.5 111.5v2q0 62 21.5 111.5t56.5 84t79.5 53t90.5 18.5q38 0 70 -10t57.5 -27t46 -39t36.5 -46v110h49v-670h-49v274zM313 35q40 0 77.5 16t66.5 45t46.5 69t17.5 89v2
q0 49 -17.5 89.5t-46.5 69t-66.5 44.5t-77.5 16q-42 0 -78.5 -15t-63.5 -43t-42.5 -68.5t-15.5 -91.5v-2q0 -50 16 -91t43.5 -69.5t64 -44t76.5 -15.5z" />
    <glyph glyph-name="r" unicode="r" 
d="M93 510h49v-145q15 34 38 63t52 49.5t63.5 31t72.5 9.5v-54h-5q-44 0 -84 -16.5t-70.5 -49t-48.5 -80t-18 -109.5v-209h-49v510z" />
    <glyph glyph-name="s" unicode="s" horiz-adv-x="497" 
d="M258 -10q-56 0 -112 20.5t-97 53.5l29 39q42 -32 88 -49.5t95 -17.5q52 0 87.5 26t35.5 71v2q0 22 -11 38t-30 28t-43 20t-51 16q-31 9 -62.5 19t-56.5 25.5t-40.5 38.5t-15.5 57v2q0 31 12.5 56.5t34.5 44.5t53 29.5t68 10.5q46 0 94.5 -15t86.5 -41l-26 -41
q-35 23 -75.5 37t-81.5 14q-53 0 -84.5 -25.5t-31.5 -63.5v-2q0 -21 12 -36.5t31.5 -26.5t45.5 -19.5t53 -16.5q31 -9 61 -19.5t54 -27t38.5 -39.5t14.5 -57v-2q0 -34 -13.5 -61.5t-37.5 -47t-56 -30t-69 -10.5z" />
    <glyph glyph-name="t" unicode="t" 
d="M263 -9q-30 0 -56 8t-45.5 25.5t-30.5 44t-11 62.5v334h-74v45h74v163h49v-163h179v-45h-179v-329q0 -55 28.5 -77t73.5 -22q19 0 36 4t39 14v-46q-20 -9 -39.5 -13.5t-43.5 -4.5z" />
    <glyph glyph-name="u" unicode="u" horiz-adv-x="613" 
d="M287 -12q-48 0 -86 15.5t-64.5 43.5t-40 66.5t-13.5 84.5v312h49v-303q0 -79 42 -126.5t120 -47.5q37 0 69.5 13.5t56.5 37.5t37.5 57.5t13.5 73.5v295h49v-510h-49v95q-26 -45 -70 -76t-114 -31z" />
    <glyph glyph-name="v" unicode="v" horiz-adv-x="582" 
d="M41 510h57l193 -455l195 455h55l-229 -514h-42z" />
    <glyph glyph-name="w" unicode="w" horiz-adv-x="861" 
d="M49 510h55l154 -448l154 450h39l154 -450l154 448h53l-187 -514h-42l-152 437l-153 -437h-42z" />
    <glyph glyph-name="x" unicode="x" horiz-adv-x="570" 
d="M285 294l173 216h59l-201 -249l209 -261h-61l-180 227l-180 -227h-59l208 260l-200 250h61z" />
    <glyph glyph-name="y" unicode="y" horiz-adv-x="588" 
d="M492 510h54l-221 -528q-34 -80 -74.5 -112.5t-95.5 -32.5q-29 0 -52 5.5t-49 16.5l17 43q20 -10 39 -14.5t48 -4.5q20 0 37 6t32 20.5t29 37.5t28 56l-245 507h57l212 -456z" />
    <glyph glyph-name="z" unicode="z" horiz-adv-x="554" 
d="M58 28l368 438h-354v44h427v-28l-368 -438h368v-44h-441v28z" />
    <glyph glyph-name="braceleft" unicode="{" horiz-adv-x="480" 
d="M416 -141q-67 13 -108.5 31.5t-64 43.5t-30.5 57t-8 71v79q0 29 -5.5 52.5t-19 40t-37 25.5t-58.5 9h-26v38h26q35 0 58.5 9t37 25.5t19 40t5.5 52.5v79q0 39 8 71t30.5 57t64 43.5t108.5 31.5l7 -32q-57 -15 -91 -30t-51 -35t-22 -47t-5 -65v-75q0 -33 -7.5 -57t-21 -41
t-32.5 -28t-43 -18q25 -8 44.5 -19t32.5 -27.5t20 -40.5t7 -57v-75q0 -38 5 -65t22 -47t51 -35t91 -30l-7 -32v0z" />
    <glyph glyph-name="bar" unicode="|" horiz-adv-x="286" 
d="M121 798h44v-926h-44v926z" />
    <glyph glyph-name="braceright" unicode="}" horiz-adv-x="480" 
d="M57 -109q57 15 91 30t51 35t22 47t5 65v75q0 33 7.5 57t21 41t32.5 28t43 18q-25 8 -44.5 19t-32.5 27.5t-20 40.5t-7 57v75q0 38 -5 65t-22 47t-51 35t-91 30l7 32q67 -13 108.5 -31.5t64 -43.5t30.5 -57t8 -71v-79q0 -29 5.5 -52.5t19 -40t37 -25.5t58.5 -9h26v-38h-26
q-35 0 -58.5 -9t-37 -25.5t-19 -40t-5.5 -52.5v-79q0 -39 -8 -71t-30.5 -57t-64 -43.5t-108.5 -31.5z" />
    <glyph glyph-name="asciitilde" unicode="~" horiz-adv-x="460" 
d="M294 251q-14 0 -30 6t-35 14q-17 8 -33.5 14.5t-29.5 6.5q-18 0 -28.5 -10.5t-21.5 -39.5l-34 9q14 54 34 73.5t50 19.5q14 0 30 -6t35 -14q17 -8 33.5 -14.5t29.5 -6.5q18 0 28.5 10.5t21.5 39.5l34 -9q-14 -54 -34 -73.5t-50 -19.5z" />
    <glyph glyph-name="uni00A0" unicode="&#xa0;" horiz-adv-x="300" 
 />
    <glyph glyph-name="exclamdown" unicode="&#xa1;" horiz-adv-x="252" 
d="M93 700h66v-85h-66v85zM97 70l15 447h28l15 -447v-70h-58v70z" />
    <glyph glyph-name="cent" unicode="&#xa2;" horiz-adv-x="581" 
d="M385 615q40 -10 74.5 -31.5t66.5 -55.5l-35 -36q-29 29 -57 49t-60 28l-85 -432q16 -3 36 -3q54 0 96.5 24.5t74.5 60.5l34 -30q-39 -44 -88.5 -72.5t-119.5 -28.5q-21 0 -39 3l-19 -97h-50l21 109q-38 13 -69.5 38t-54.5 57.5t-36 72t-13 82.5v2q0 54 20 102t55 85
t82.5 58.5t102.5 21.5h14l17 84h50zM115 355q0 -71 36.5 -126t94.5 -79l84 426h-9q-44 0 -81.5 -17t-65 -46.5t-43.5 -69.5t-16 -86v-2z" />
    <glyph glyph-name="sterling" unicode="&#xa3;" horiz-adv-x="644" 
d="M70 25l86 20v260h-86v48h86v118q0 57 16.5 103t48.5 78q28 28 66 43t84 15q39 0 70 -8t56.5 -22.5t46 -34t37.5 -41.5l-40 -31q-15 19 -32 35.5t-37.5 28.5t-45.5 19t-56 7q-70 0 -113 -43q-50 -50 -50 -148v-119h298v-48h-298v-258h374v-47h-511v25z" />
    <glyph glyph-name="yen" unicode="&#xa5;" horiz-adv-x="686" 
d="M105 313h195l-268 387h63l249 -373l250 373h60l-269 -387h196v-45h-213v-98h213v-45h-213v-125h-50v125h-213v45h213v98h-213v45z" />
    <glyph glyph-name="section" unicode="&#xa7;" horiz-adv-x="632" 
d="M419 222q39 -17 62.5 -43.5t23.5 -61.5v-2q0 -57 -48 -91t-128 -34q-67 0 -126 26.5t-101 68.5l38 36q35 -35 84.5 -58.5t109.5 -23.5t88 22.5t28 54.5v2q0 16 -9.5 30t-31 26.5t-56.5 25t-86 24.5q-56 13 -94.5 27.5t-62.5 31t-34.5 36.5t-10.5 44v2q0 45 40 75t108 38
q-39 17 -62.5 43.5t-23.5 61.5v2q0 57 48 91t128 34q67 0 126 -26.5t101 -68.5l-38 -36q-35 35 -84.5 58.5t-109.5 23.5t-88 -22.5t-28 -54.5v-2q0 -16 9.5 -30t31 -27t56.5 -25t86 -24q56 -14 94.5 -28t62.5 -30.5t34.5 -36.5t10.5 -44v-2q0 -45 -40 -75t-108 -38zM386 253
q29 0 53 6.5t41 17.5t26 25t9 29v2q0 13 -7 26t-24.5 25t-48 23.5t-77.5 23.5q-36 9 -63.5 12.5t-48.5 3.5q-29 0 -53 -6.5t-41 -17.5t-26 -25t-9 -29v-2q0 -14 7 -26.5t24.5 -24.5t48 -23.5t77.5 -23.5q35 -9 63 -12.5t49 -3.5z" />
    <glyph glyph-name="dieresis" unicode="&#xa8;" horiz-adv-x="500" 
d="M297 675h69v-80h-69v80zM134 675h69v-80h-69v80z" />
    <glyph glyph-name="copyright" unicode="&#xa9;" horiz-adv-x="830" 
d="M414 -12q-76 0 -142 28.5t-114.5 77.5t-76.5 114.5t-28 139.5v2q0 74 28 139.5t77 115t115.5 78.5t142.5 29t142 -28.5t114.5 -77.5t76.5 -114.5t28 -139.5v-2q0 -74 -28 -139.5t-77 -115t-115.5 -78.5t-142.5 -29zM414 16q71 0 132 26.5t105.5 72t70 106t25.5 129.5v2
q0 69 -25 129.5t-69.5 105.5t-105 71t-131.5 26t-132 -26.5t-105.5 -72t-70 -106t-25.5 -129.5v-2q0 -69 25 -129.5t69.5 -105.5t105 -71t131.5 -26zM419 166q-39 0 -72 15t-57.5 40.5t-38.5 59.5t-14 73v2q0 38 14 72.5t39 60.5t58 41t72 15q49 0 81 -17.5t60 -43.5
l-30 -31q-22 21 -49.5 36.5t-62.5 15.5q-30 0 -55 -11.5t-43.5 -32t-29 -47.5t-10.5 -57v-2q0 -30 11 -57.5t29.5 -47.5t44 -32t54.5 -12q37 0 63 13.5t52 38.5l28 -28q-29 -29 -62 -46.5t-82 -17.5z" />
    <glyph glyph-name="ordfeminine" unicode="&#xaa;" horiz-adv-x="390" 
d="M174 411q-20 0 -39.5 5.5t-35 17t-25 28t-9.5 39.5v2q0 45 34.5 69t89.5 24q27 0 46.5 -3t36.5 -8v5q0 38 -22.5 57.5t-60.5 19.5q-24 0 -44.5 -6.5t-43.5 -17.5l-13 34q26 12 50 19t53 7q58 0 90 -32q28 -28 28 -80v-174h-37v41q-17 -22 -41.5 -34.5t-56.5 -12.5z
M176 447q19 0 36.5 5.5t30.5 15.5t21 24.5t8 31.5v27q-17 5 -37 8t-48 3q-38 0 -60 -16t-22 -41v-2q0 -27 21 -41.5t50 -14.5zM62 333h252v-40h-252v40z" />
    <glyph glyph-name="guillemotleft" unicode="&#xab;" horiz-adv-x="515" 
d="M255 251v8l160 209l37 -24l-137 -188l137 -190l-37 -24zM51 251v8l160 209l37 -24l-137 -188l137 -190l-37 -24z" />
    <glyph glyph-name="registered" unicode="&#xae;" horiz-adv-x="416" 
d="M208 360q-37 0 -68.5 14t-55 37.5t-37 55t-13.5 67.5v1q0 36 13.5 67.5t37 55.5t55.5 38t68 14q37 0 68.5 -14t55 -37.5t37 -55t13.5 -67.5v-1q0 -36 -13.5 -67.5t-37 -55.5t-55.5 -38t-68 -14zM208 379q33 0 61 12.5t48.5 33.5t32.5 49.5t12 60.5v1q0 32 -11.5 60
t-32.5 49t-49 33.5t-61 12.5t-61 -12.5t-48.5 -33.5t-32.5 -49.5t-12 -60.5v-1q0 -32 11.5 -60t32.5 -49t49 -33.5t61 -12.5zM143 626h78q27 0 46 -14t19 -40q0 -22 -12.5 -35t-30.5 -18l49 -68h-35l-44 64h-42v-64h-28v175zM218 538q19 0 29 9t10 23q0 16 -10.5 23.5
t-28.5 7.5h-47v-63h47z" />
    <glyph glyph-name="macron" unicode="&#xaf;" horiz-adv-x="500" 
d="M103 668h294v-47h-294v47z" />
    <glyph glyph-name="degree" unicode="&#xb0;" horiz-adv-x="450" 
d="M225 412q-30 0 -57 12t-48 32t-33.5 46.5t-12.5 55.5v2q0 29 12.5 55.5t33.5 46.5t48 32t57 12t57 -12t48 -32t33.5 -46.5t12.5 -55.5v-2q0 -29 -12.5 -55.5t-33.5 -46.5t-48 -32t-57 -12zM225 456q22 0 40.5 8.5t32 22.5t21 32.5t7.5 38.5v2q0 20 -7.5 38.5t-21 32.5
t-32 22.5t-40.5 8.5t-40.5 -8.5t-32 -22.5t-21 -32.5t-7.5 -38.5v-2q0 -20 7.5 -38.5t21 -32.5t32 -22.5t40.5 -8.5z" />
    <glyph glyph-name="plusminus" unicode="&#xb1;" horiz-adv-x="620" 
d="M335 358v-203h-50v203h-207v48h207v203h50v-203h207v-48h-207zM78 0v48h464v-48h-464z" />
    <glyph glyph-name="two.sup" unicode="&#xb2;" 
d="M61 459l149 132q42 36 61 63t19 58q0 32 -23.5 53.5t-58.5 21.5q-34 0 -60.5 -18t-49.5 -54l-30 18q25 40 58.5 64.5t84.5 24.5q25 0 47 -8.5t38 -23t25 -34.5t9 -42q0 -41 -23 -72.5t-70 -72.5l-122 -106h219v-37h-273v33z" />
    <glyph glyph-name="three.sup" unicode="&#xb3;" 
d="M198 416q-48 0 -83.5 20.5t-59.5 53.5l29 24q46 -63 115 -63q37 0 63 22.5t26 58.5q0 38 -32 59t-80 21h-28l-8 24l133 139h-198v37h248v-32l-128 -134q28 -2 52 -10t42 -22t28.5 -34.5t10.5 -47.5q0 -26 -10.5 -47.5t-28.5 -36.5t-41.5 -23.5t-49.5 -8.5z" />
    <glyph glyph-name="acute" unicode="&#xb4;" horiz-adv-x="500" 
d="M282 728l61 -30l-107 -103h-42z" />
    <glyph glyph-name="paragraph" unicode="&#xb6;" horiz-adv-x="480" 
d="M333 277h-6q-58 0 -108 14t-87 41t-58 66t-21 90v2q0 49 19 88t53.5 66t82 41.5t104.5 14.5h74v-700h-53v277z" />
    <glyph glyph-name="periodcentered" unicode="&#xb7;" horiz-adv-x="230" 
d="M82 340h66v-85h-66v85z" />
    <glyph glyph-name="cedilla" unicode="&#xb8;" horiz-adv-x="500" 
d="M162 -122l90 132h43l-78 -158z" />
    <glyph glyph-name="one.sup" unicode="&#xb9;" horiz-adv-x="325" 
d="M165 426v352l-90 -34l-9 35l105 40h33v-393h-39z" />
    <glyph glyph-name="ordmasculine" unicode="&#xba;" horiz-adv-x="390" 
d="M194 411q-31 0 -57.5 11.5t-45.5 31.5t-29.5 46.5t-10.5 55.5v2q0 30 11 56.5t30 46.5t45.5 32t58.5 12q31 0 57.5 -11.5t45.5 -31.5t29.5 -46.5t10.5 -55.5v-2q0 -30 -11 -56.5t-30 -46.5t-46 -32t-58 -12zM51 333h288v-40h-288v40zM196 450q45 0 72.5 31t27.5 75v2
q0 22 -8 42t-21.5 34.5t-32 23t-40.5 8.5q-45 0 -72.5 -31t-27.5 -75v-2q0 -23 8 -42.5t21.5 -34t32 -23t40.5 -8.5z" />
    <glyph glyph-name="guillemotright" unicode="&#xbb;" horiz-adv-x="515" 
d="M267 66l137 188l-137 190l37 24l160 -209v-8l-160 -209zM63 66l137 188l-137 190l37 24l160 -209v-8l-160 -209z" />
    <glyph glyph-name="onequarter" unicode="&#xbc;" horiz-adv-x="825" 
d="M720 -2h-37v91h-190l-12 32l194 271h45v-269h55v-34h-55v-91zM386 356l231 344h43l-246 -356l-231 -344h-43zM160 314v352l-90 -34l-9 35l105 40h33v-393h-39zM683 342l-158 -219h158v219z" />
    <glyph glyph-name="onehalf" unicode="&#xbd;" horiz-adv-x="825" 
d="M496 33l149 132q42 36 61 63t19 58q0 32 -23.5 53.5t-58.5 21.5q-34 0 -60.5 -18t-49.5 -54l-30 18q25 40 58.5 64.5t84.5 24.5q25 0 47 -8.5t38 -23t25 -34.5t9 -42q0 -41 -23 -72.5t-70 -72.5l-122 -106h219v-37h-273v33zM376 356l231 344h43l-246 -356l-231 -344h-43z
M160 314v352l-90 -34l-9 35l105 40h33v-393h-39z" />
    <glyph glyph-name="threequarters" unicode="&#xbe;" horiz-adv-x="900" 
d="M795 -2h-37v91h-190l-12 32l194 271h45v-269h55v-34h-55v-91zM198 304q-48 0 -83.5 20.5t-59.5 53.5l29 24q46 -63 115 -63q37 0 63 22.5t26 58.5q0 38 -32 59t-80 21h-28l-8 24l133 139h-198v37h248v-32l-128 -134q28 -2 52 -10t42 -22t28.5 -34.5t10.5 -47.5
q0 -26 -10.5 -47.5t-28.5 -36.5t-41.5 -23.5t-49.5 -8.5zM456 356l231 344h43l-246 -356l-231 -344h-43zM758 342l-158 -219h158v219z" />
    <glyph glyph-name="questiondown" unicode="&#xbf;" horiz-adv-x="534" 
d="M256 700h66v-85h-66v85zM269 -9q-50 0 -90 15.5t-68 42t-43.5 62t-15.5 75.5v2q0 46 17 82t45.5 61.5t67 40.5t82.5 20l9 125h32l13 -162l-5 -5q-100 -2 -154 -45t-54 -115v-2q0 -31 11.5 -58.5t33 -48t52.5 -32.5t69 -12q60 0 107 27.5t86 75.5l36 -30
q-21 -27 -45 -48.5t-52 -37.5t-61 -24.5t-73 -8.5z" />
    <glyph glyph-name="Agrave" unicode="&#xc0;" horiz-adv-x="790" 
d="M370 705h50l326 -705h-57l-89 196h-413l-89 -196h-54zM578 243l-184 405l-185 -405h369zM371 775l-107 90l59 28l93 -118h-45z" />
    <glyph glyph-name="Aacute" unicode="&#xc1;" horiz-adv-x="790" 
d="M370 705h50l326 -705h-57l-89 196h-413l-89 -196h-54zM578 243l-184 405l-185 -405h369zM467 893l59 -28l-107 -90h-45z" />
    <glyph glyph-name="Acircumflex" unicode="&#xc2;" horiz-adv-x="790" 
d="M370 705h50l326 -705h-57l-89 196h-413l-89 -196h-54zM578 243l-184 405l-185 -405h369zM372 882h46l103 -107h-54l-73 61l-73 -61h-52z" />
    <glyph glyph-name="Atilde" unicode="&#xc3;" horiz-adv-x="790" 
d="M370 705h50l326 -705h-57l-89 196h-413l-89 -196h-54zM578 243l-184 405l-185 -405h369zM463 775q-15 0 -32.5 6.5t-37.5 14.5q-14 6 -29.5 11.5t-26.5 5.5q-18 0 -28.5 -10.5t-21.5 -36.5l-37 10q14 48 33.5 68t48.5 20q15 0 32.5 -6.5t37.5 -14.5q14 -6 29.5 -11.5
t26.5 -5.5q18 0 28.5 10t21.5 36l37 -10q-14 -48 -33.5 -67.5t-48.5 -19.5z" />
    <glyph glyph-name="Adieresis" unicode="&#xc4;" horiz-adv-x="790" 
d="M370 705h50l326 -705h-57l-89 196h-413l-89 -196h-54zM578 243l-184 405l-185 -405h369zM447 851h73v-76h-73v76zM271 851h74v-76h-74v76z" />
    <glyph glyph-name="Aring" unicode="&#xc5;" horiz-adv-x="790" 
d="M351 666q-28 11 -45 34t-17 53q0 41 31 68t75 27t75 -27t31 -68q0 -30 -17.5 -53t-45.5 -34l308 -666h-57l-89 196h-413l-89 -196h-54zM578 243l-184 405l-185 -405h369zM395 690q29 0 48.5 18t19.5 45t-19.5 45t-48.5 18t-48.5 -18t-19.5 -45t19.5 -45t48.5 -18z" />
    <glyph glyph-name="AE" unicode="&#xc6;" horiz-adv-x="1045" 
d="M444 700h533v-48h-431v-275h386v-48h-386v-281h436v-48h-488v196h-300l-118 -196h-56zM494 243v410h-26l-246 -410h272z" />
    <glyph glyph-name="Ccedilla" unicode="&#xc7;" horiz-adv-x="738" 
d="M312 -122l76 112q-69 6 -126.5 36t-99.5 78t-65.5 110.5t-23.5 133.5v2q0 74 26.5 140t73 115.5t110.5 78t140 28.5q47 0 85 -8t70.5 -23t61 -35.5t55.5 -45.5l-37 -38q-23 22 -48 41t-53.5 32.5t-62 21.5t-72.5 8q-63 0 -117 -24t-93.5 -66.5t-62 -99.5t-22.5 -123v-2
q0 -66 23 -123.5t62.5 -100t93.5 -67t117 -24.5q76 0 132 28t109 81l35 -34q-54 -53 -116 -86t-149 -36l-67 -136z" />
    <glyph glyph-name="Egrave" unicode="&#xc8;" horiz-adv-x="670" 
d="M104 700h498v-48h-446v-275h401v-48h-401v-281h451v-48h-503v700zM331 765l-107 90l59 28l93 -118h-45z" />
    <glyph glyph-name="Eacute" unicode="&#xc9;" horiz-adv-x="670" 
d="M104 700h498v-48h-446v-275h401v-48h-401v-281h451v-48h-503v700zM427 883l59 -28l-107 -90h-45z" />
    <glyph glyph-name="Ecircumflex" unicode="&#xca;" horiz-adv-x="670" 
d="M104 700h498v-48h-446v-275h401v-48h-401v-281h451v-48h-503v700zM332 872h46l103 -107h-54l-73 61l-73 -61h-52z" />
    <glyph glyph-name="Edieresis" unicode="&#xcb;" horiz-adv-x="670" 
d="M104 700h498v-48h-446v-275h401v-48h-401v-281h451v-48h-503v700zM407 841h73v-76h-73v76zM231 841h74v-76h-74v76z" />
    <glyph glyph-name="Igrave" unicode="&#xcc;" horiz-adv-x="274" 
d="M111 700h52v-700h-52v700zM113 765l-107 90l59 28l93 -118h-45z" />
    <glyph glyph-name="Iacute" unicode="&#xcd;" horiz-adv-x="274" 
d="M111 700h52v-700h-52v700zM209 883l59 -28l-107 -90h-45z" />
    <glyph glyph-name="Icircumflex" unicode="&#xce;" horiz-adv-x="274" 
d="M111 700h52v-700h-52v700zM114 872h46l103 -107h-54l-73 61l-73 -61h-52z" />
    <glyph glyph-name="Idieresis" unicode="&#xcf;" horiz-adv-x="274" 
d="M111 700h52v-700h-52v700zM189 841h73v-76h-73v76zM13 841h74v-76h-74v76z" />
    <glyph glyph-name="Eth" unicode="&#xd0;" horiz-adv-x="812" 
d="M134 328h-75v48h75v324h233q82 0 150.5 -26.5t118 -73.5t76.5 -110.5t27 -137.5v-2q0 -74 -27 -138t-76.5 -111t-118 -74t-150.5 -27h-233v328zM186 328v-280h181q73 0 132 23.5t100 64t63.5 95t22.5 117.5v2q0 62 -22.5 117t-63.5 96t-100 65t-132 24h-181v-276h232v-48
h-232z" />
    <glyph glyph-name="Ntilde" unicode="&#xd1;" horiz-adv-x="790" 
d="M104 700h49l483 -609v609h50v-700h-39l-493 622v-622h-50v700zM463 760q-15 0 -32.5 6.5t-37.5 14.5q-14 6 -29.5 11.5t-26.5 5.5q-18 0 -28.5 -10.5t-21.5 -36.5l-37 10q14 48 33.5 68t48.5 20q15 0 32.5 -6.5t37.5 -14.5q14 -6 29.5 -11.5t26.5 -5.5q18 0 28.5 10
t21.5 36l37 -10q-14 -48 -33.5 -67.5t-48.5 -19.5z" />
    <glyph glyph-name="Ograve" unicode="&#xd2;" horiz-adv-x="850" 
d="M424 -12q-80 0 -144.5 29.5t-110.5 79t-71 114.5t-25 137v2q0 72 25.5 137.5t71.5 115.5t111 79.5t145 29.5q79 0 144 -29.5t111 -79t71 -114.5t25 -137v-2q0 -72 -25.5 -137.5t-71.5 -115.5t-111.5 -79.5t-144.5 -29.5zM426 35q65 0 119.5 24.5t94 67t61.5 99.5t22 122
v2q0 65 -22.5 122.5t-62 100t-94.5 67.5t-120 25t-119.5 -24.5t-94 -67t-61.5 -99.5t-22 -122v-2q0 -65 22.5 -122.5t62 -100t94.5 -67.5t120 -25zM401 775l-107 90l59 28l93 -118h-45z" />
    <glyph glyph-name="Oacute" unicode="&#xd3;" horiz-adv-x="850" 
d="M424 -12q-80 0 -144.5 29.5t-110.5 79t-71 114.5t-25 137v2q0 72 25.5 137.5t71.5 115.5t111 79.5t145 29.5q79 0 144 -29.5t111 -79t71 -114.5t25 -137v-2q0 -72 -25.5 -137.5t-71.5 -115.5t-111.5 -79.5t-144.5 -29.5zM426 35q65 0 119.5 24.5t94 67t61.5 99.5t22 122
v2q0 65 -22.5 122.5t-62 100t-94.5 67.5t-120 25t-119.5 -24.5t-94 -67t-61.5 -99.5t-22 -122v-2q0 -65 22.5 -122.5t62 -100t94.5 -67.5t120 -25zM497 893l59 -28l-107 -90h-45z" />
    <glyph glyph-name="Ocircumflex" unicode="&#xd4;" horiz-adv-x="850" 
d="M424 -12q-80 0 -144.5 29.5t-110.5 79t-71 114.5t-25 137v2q0 72 25.5 137.5t71.5 115.5t111 79.5t145 29.5q79 0 144 -29.5t111 -79t71 -114.5t25 -137v-2q0 -72 -25.5 -137.5t-71.5 -115.5t-111.5 -79.5t-144.5 -29.5zM426 35q65 0 119.5 24.5t94 67t61.5 99.5t22 122
v2q0 65 -22.5 122.5t-62 100t-94.5 67.5t-120 25t-119.5 -24.5t-94 -67t-61.5 -99.5t-22 -122v-2q0 -65 22.5 -122.5t62 -100t94.5 -67.5t120 -25zM402 882h46l103 -107h-54l-73 61l-73 -61h-52z" />
    <glyph glyph-name="Otilde" unicode="&#xd5;" horiz-adv-x="850" 
d="M424 -12q-80 0 -144.5 29.5t-110.5 79t-71 114.5t-25 137v2q0 72 25.5 137.5t71.5 115.5t111 79.5t145 29.5q79 0 144 -29.5t111 -79t71 -114.5t25 -137v-2q0 -72 -25.5 -137.5t-71.5 -115.5t-111.5 -79.5t-144.5 -29.5zM426 35q65 0 119.5 24.5t94 67t61.5 99.5t22 122
v2q0 65 -22.5 122.5t-62 100t-94.5 67.5t-120 25t-119.5 -24.5t-94 -67t-61.5 -99.5t-22 -122v-2q0 -65 22.5 -122.5t62 -100t94.5 -67.5t120 -25zM493 775q-15 0 -32.5 6.5t-37.5 14.5q-14 6 -29.5 11.5t-26.5 5.5q-18 0 -28.5 -10.5t-21.5 -36.5l-37 10q14 48 33.5 68
t48.5 20q15 0 32.5 -6.5t37.5 -14.5q14 -6 29.5 -11.5t26.5 -5.5q18 0 28.5 10t21.5 36l37 -10q-14 -48 -33.5 -67.5t-48.5 -19.5z" />
    <glyph glyph-name="Odieresis" unicode="&#xd6;" horiz-adv-x="850" 
d="M424 -12q-80 0 -144.5 29.5t-110.5 79t-71 114.5t-25 137v2q0 72 25.5 137.5t71.5 115.5t111 79.5t145 29.5q79 0 144 -29.5t111 -79t71 -114.5t25 -137v-2q0 -72 -25.5 -137.5t-71.5 -115.5t-111.5 -79.5t-144.5 -29.5zM426 35q65 0 119.5 24.5t94 67t61.5 99.5t22 122
v2q0 65 -22.5 122.5t-62 100t-94.5 67.5t-120 25t-119.5 -24.5t-94 -67t-61.5 -99.5t-22 -122v-2q0 -65 22.5 -122.5t62 -100t94.5 -67.5t120 -25zM477 851h73v-76h-73v76zM301 851h74v-76h-74v76z" />
    <glyph glyph-name="multiply" unicode="&#xd7;" horiz-adv-x="620" 
d="M309 319l-181 -183l-34 34l183 181l-183 181l36 36l181 -183l181 183l34 -34l-183 -181l183 -181l-36 -36z" />
    <glyph glyph-name="Oslash" unicode="&#xd8;" horiz-adv-x="850" 
d="M785 705l-100 -107q45 -49 68.5 -112.5t23.5 -133.5v-2q0 -72 -25.5 -137.5t-71.5 -115.5t-111.5 -79.5t-144.5 -29.5q-69 0 -126 22t-102 60l-71 -75h-60l99 106q-44 50 -67.5 113.5t-23.5 133.5v2q0 72 25.5 137.5t71.5 115.5t111 79.5t145 29.5q69 0 126 -22.5
t102 -60.5l71 76h60zM426 34q65 0 120 24.5t94.5 67t61.5 100t22 122.5q0 62 -20 116t-55 97l-420 -452q38 -35 88 -55t109 -20zM126 352q0 -62 19.5 -116.5t54.5 -96.5l421 452q-39 35 -89 55t-108 20q-65 0 -120 -24.5t-94.5 -67t-61.5 -100t-22 -122.5z" />
    <glyph glyph-name="Ugrave" unicode="&#xd9;" horiz-adv-x="760" 
d="M380 -11q-63 0 -115.5 19.5t-91 58t-59.5 94.5t-21 130v409h52v-404q0 -125 62.5 -192.5t174.5 -67.5q53 0 96 16t73.5 48t47 80t16.5 111v409h52v-403q0 -75 -21 -132.5t-59 -96.5t-90.5 -59t-116.5 -20zM356 760l-107 90l59 28l93 -118h-45z" />
    <glyph glyph-name="Uacute" unicode="&#xda;" horiz-adv-x="760" 
d="M380 -11q-63 0 -115.5 19.5t-91 58t-59.5 94.5t-21 130v409h52v-404q0 -125 62.5 -192.5t174.5 -67.5q53 0 96 16t73.5 48t47 80t16.5 111v409h52v-403q0 -75 -21 -132.5t-59 -96.5t-90.5 -59t-116.5 -20zM452 878l59 -28l-107 -90h-45z" />
    <glyph glyph-name="Ucircumflex" unicode="&#xdb;" horiz-adv-x="760" 
d="M380 -11q-63 0 -115.5 19.5t-91 58t-59.5 94.5t-21 130v409h52v-404q0 -125 62.5 -192.5t174.5 -67.5q53 0 96 16t73.5 48t47 80t16.5 111v409h52v-403q0 -75 -21 -132.5t-59 -96.5t-90.5 -59t-116.5 -20zM357 867h46l103 -107h-54l-73 61l-73 -61h-52z" />
    <glyph glyph-name="Udieresis" unicode="&#xdc;" horiz-adv-x="760" 
d="M380 -11q-63 0 -115.5 19.5t-91 58t-59.5 94.5t-21 130v409h52v-404q0 -125 62.5 -192.5t174.5 -67.5q53 0 96 16t73.5 48t47 80t16.5 111v409h52v-403q0 -75 -21 -132.5t-59 -96.5t-90.5 -59t-116.5 -20zM432 836h73v-76h-73v76zM256 836h74v-76h-74v76z" />
    <glyph glyph-name="Yacute" unicode="&#xdd;" horiz-adv-x="716" 
d="M332 277l-300 423h65l262 -376l263 376h62l-300 -422v-278h-52v277zM430 878l59 -28l-107 -90h-45z" />
    <glyph glyph-name="Thorn" unicode="&#xde;" horiz-adv-x="673" 
d="M104 700h52v-127h202q58 0 105.5 -14.5t82 -42t53.5 -67t19 -90.5v-2q0 -55 -22 -97t-59.5 -70t-87 -42.5t-104.5 -14.5h-189v-133h-52v700zM348 181q49 0 89 12.5t68.5 35t44.5 54.5t16 71v2q0 42 -15.5 73.5t-43.5 52.5t-67 32t-86 11h-198v-344h192z" />
    <glyph glyph-name="germandbls" unicode="&#xdf;" horiz-adv-x="620" 
d="M289 41q100 2 157.5 38.5t57.5 107.5v2q0 68 -57.5 105t-157.5 48v41q37 11 68 27t53.5 37.5t35.5 49t13 61.5v2q0 28 -11 52.5t-30.5 41.5t-47 27t-60.5 10q-36 0 -67 -13.5t-53.5 -38t-35 -60t-12.5 -79.5v-500h-49v500q0 52 15.5 95.5t44 75t69 49t91.5 17.5
q45 0 81.5 -13.5t63 -37t40.5 -55.5t14 -69v-2q0 -36 -13.5 -66.5t-35.5 -54.5t-50.5 -41.5t-57.5 -27.5q39 -7 75.5 -20.5t64.5 -35.5t45 -52.5t17 -70.5v-2q0 -45 -18.5 -80.5t-53.5 -60t-84.5 -37.5t-111.5 -13v43z" />
    <glyph glyph-name="agrave" unicode="&#xe0;" horiz-adv-x="574" 
d="M248 -12q-36 0 -71 10t-63 30t-45.5 50t-17.5 70v2q0 40 16.5 71t45.5 52t70 32t91 11q54 0 93 -6t76 -16v22q0 78 -44.5 117t-123.5 39q-47 0 -86 -11.5t-74 -29.5l-18 43q42 20 85 32t96 12q105 0 161 -56q52 -52 52 -144v-318h-48v85q-13 -18 -31.5 -35.5t-42.5 -31
t-54.5 -22t-66.5 -8.5zM251 34q39 0 74 11.5t61.5 32t42 49.5t15.5 64v58q-32 8 -75 15.5t-98 7.5q-81 0 -124.5 -32.5t-43.5 -86.5v-2q0 -28 12 -49.5t32.5 -36.5t47.5 -23t56 -8zM159 698l61 30l88 -133h-42z" />
    <glyph glyph-name="aacute" unicode="&#xe1;" horiz-adv-x="574" 
d="M248 -12q-36 0 -71 10t-63 30t-45.5 50t-17.5 70v2q0 40 16.5 71t45.5 52t70 32t91 11q54 0 93 -6t76 -16v22q0 78 -44.5 117t-123.5 39q-47 0 -86 -11.5t-74 -29.5l-18 43q42 20 85 32t96 12q105 0 161 -56q52 -52 52 -144v-318h-48v85q-13 -18 -31.5 -35.5t-42.5 -31
t-54.5 -22t-66.5 -8.5zM251 34q39 0 74 11.5t61.5 32t42 49.5t15.5 64v58q-32 8 -75 15.5t-98 7.5q-81 0 -124.5 -32.5t-43.5 -86.5v-2q0 -28 12 -49.5t32.5 -36.5t47.5 -23t56 -8zM354 728l61 -30l-107 -103h-42z" />
    <glyph glyph-name="acircumflex" unicode="&#xe2;" horiz-adv-x="574" 
d="M248 -12q-36 0 -71 10t-63 30t-45.5 50t-17.5 70v2q0 40 16.5 71t45.5 52t70 32t91 11q54 0 93 -6t76 -16v22q0 78 -44.5 117t-123.5 39q-47 0 -86 -11.5t-74 -29.5l-18 43q42 20 85 32t96 12q105 0 161 -56q52 -52 52 -144v-318h-48v85q-13 -18 -31.5 -35.5t-42.5 -31
t-54.5 -22t-66.5 -8.5zM251 34q39 0 74 11.5t61.5 32t42 49.5t15.5 64v58q-32 8 -75 15.5t-98 7.5q-81 0 -124.5 -32.5t-43.5 -86.5v-2q0 -28 12 -49.5t32.5 -36.5t47.5 -23t56 -8zM267 717h40l100 -122h-47l-74 68l-74 -68h-45z" />
    <glyph glyph-name="atilde" unicode="&#xe3;" horiz-adv-x="574" 
d="M248 -12q-36 0 -71 10t-63 30t-45.5 50t-17.5 70v2q0 40 16.5 71t45.5 52t70 32t91 11q54 0 93 -6t76 -16v22q0 78 -44.5 117t-123.5 39q-47 0 -86 -11.5t-74 -29.5l-18 43q42 20 85 32t96 12q105 0 161 -56q52 -52 52 -144v-318h-48v85q-13 -18 -31.5 -35.5t-42.5 -31
t-54.5 -22t-66.5 -8.5zM251 34q39 0 74 11.5t61.5 32t42 49.5t15.5 64v58q-32 8 -75 15.5t-98 7.5q-81 0 -124.5 -32.5t-43.5 -86.5v-2q0 -28 12 -49.5t32.5 -36.5t47.5 -23t56 -8zM354 595q-14 0 -30 6t-35 14q-17 8 -33.5 14.5t-29.5 6.5q-18 0 -28.5 -10.5t-21.5 -39.5
l-34 9q14 54 34 73.5t50 19.5q14 0 30 -6t35 -14q17 -8 33.5 -14.5t29.5 -6.5q18 0 28.5 10.5t21.5 39.5l34 -9q-14 -54 -34 -73.5t-50 -19.5z" />
    <glyph glyph-name="adieresis" unicode="&#xe4;" horiz-adv-x="574" 
d="M248 -12q-36 0 -71 10t-63 30t-45.5 50t-17.5 70v2q0 40 16.5 71t45.5 52t70 32t91 11q54 0 93 -6t76 -16v22q0 78 -44.5 117t-123.5 39q-47 0 -86 -11.5t-74 -29.5l-18 43q42 20 85 32t96 12q105 0 161 -56q52 -52 52 -144v-318h-48v85q-13 -18 -31.5 -35.5t-42.5 -31
t-54.5 -22t-66.5 -8.5zM251 34q39 0 74 11.5t61.5 32t42 49.5t15.5 64v58q-32 8 -75 15.5t-98 7.5q-81 0 -124.5 -32.5t-43.5 -86.5v-2q0 -28 12 -49.5t32.5 -36.5t47.5 -23t56 -8zM334 675h69v-80h-69v80zM171 675h69v-80h-69v80z" />
    <glyph glyph-name="aring" unicode="&#xe5;" horiz-adv-x="574" 
d="M248 -12q-36 0 -71 10t-63 30t-45.5 50t-17.5 70v2q0 40 16.5 71t45.5 52t70 32t91 11q54 0 93 -6t76 -16v22q0 78 -44.5 117t-123.5 39q-47 0 -86 -11.5t-74 -29.5l-18 43q42 20 85 32t96 12q105 0 161 -56q52 -52 52 -144v-318h-48v85q-13 -18 -31.5 -35.5t-42.5 -31
t-54.5 -22t-66.5 -8.5zM251 34q39 0 74 11.5t61.5 32t42 49.5t15.5 64v58q-32 8 -75 15.5t-98 7.5q-81 0 -124.5 -32.5t-43.5 -86.5v-2q0 -28 12 -49.5t32.5 -36.5t47.5 -23t56 -8zM287 593q-21 0 -40 8t-33.5 21.5t-22.5 31.5t-8 39t8 39t22.5 31.5t33.5 21.5t40 8t40 -8
t33.5 -21.5t22.5 -31.5t8 -39t-8 -39t-22.5 -31.5t-33.5 -21.5t-40 -8zM287 623q29 0 49.5 20.5t20.5 49.5t-20.5 49.5t-49.5 20.5t-49.5 -20.5t-20.5 -49.5t20.5 -49.5t49.5 -20.5z" />
    <glyph glyph-name="ae" unicode="&#xe6;" horiz-adv-x="954" 
d="M243 -12q-35 0 -69.5 10t-61.5 30t-44 50t-17 70v2q0 40 16 71t45 52t69 32t88 11q50 0 86.5 -6t73.5 -16v22q0 78 -42 117t-119 39q-45 0 -81.5 -11.5t-71.5 -29.5l-18 43q43 20 83 32t91 12q76 0 126 -32t67 -96q30 60 84 96t122 36q54 0 97 -20.5t73.5 -56.5t47 -84.5
t16.5 -105.5v-10.5t-1 -9.5h-423q3 -48 21 -85t45 -63t61.5 -39.5t72.5 -13.5q60 0 101.5 23t73.5 57l34 -30q-39 -42 -88.5 -69t-122.5 -27q-63 0 -117.5 29.5t-88.5 82.5q-40 -46 -96.5 -79t-132.5 -33zM851 279q-3 39 -15.5 74.5t-35 63t-55.5 44t-77 16.5q-38 0 -71 -15
t-57.5 -41.5t-40.5 -63t-19 -78.5h371zM246 34q66 0 116.5 30.5t87.5 76.5q-10 25 -15.5 52t-6.5 57q-32 8 -72.5 15t-89.5 7q-79 0 -121 -32.5t-42 -86.5v-2q0 -28 11.5 -49.5t31 -36.5t45.5 -23t55 -8z" />
    <glyph glyph-name="ccedilla" unicode="&#xe7;" horiz-adv-x="571" 
d="M208 -122l76 112q-49 6 -90.5 29.5t-71.5 59t-47 80t-17 94.5v2q0 54 20 102t55 85t82.5 58.5t102.5 21.5q36 0 65.5 -7.5t54.5 -20.5t45.5 -30t38.5 -36l-35 -36q-33 34 -73 59t-97 25q-44 0 -81.5 -17t-65 -46.5t-43.5 -69.5t-16 -86v-2q0 -46 16.5 -86.5t45 -70.5
t66.5 -47t82 -17q54 0 96.5 24.5t74.5 60.5l34 -30q-38 -43 -84 -70.5t-112 -30.5l-67 -136z" />
    <glyph glyph-name="egrave" unicode="&#xe8;" horiz-adv-x="584" 
d="M308 -12q-50 0 -95.5 19t-80 54t-54.5 84t-20 109v2q0 55 18.5 103.5t51 84.5t76.5 57t96 21q54 0 97 -20.5t73.5 -56.5t47 -84.5t16.5 -105.5v-10.5t-1 -9.5h-423q3 -48 21 -85t45 -63t61.5 -39.5t72.5 -13.5q60 0 101.5 23t73.5 57l34 -30q-39 -42 -88.5 -69
t-122.5 -27zM481 279q-3 39 -15.5 74.5t-35 63t-55.5 44t-77 16.5q-38 0 -71 -15t-57.5 -41.5t-40.5 -63t-19 -78.5h371zM172 698l61 30l88 -133h-42z" />
    <glyph glyph-name="eacute" unicode="&#xe9;" horiz-adv-x="584" 
d="M308 -12q-50 0 -95.5 19t-80 54t-54.5 84t-20 109v2q0 55 18.5 103.5t51 84.5t76.5 57t96 21q54 0 97 -20.5t73.5 -56.5t47 -84.5t16.5 -105.5v-10.5t-1 -9.5h-423q3 -48 21 -85t45 -63t61.5 -39.5t72.5 -13.5q60 0 101.5 23t73.5 57l34 -30q-39 -42 -88.5 -69
t-122.5 -27zM481 279q-3 39 -15.5 74.5t-35 63t-55.5 44t-77 16.5q-38 0 -71 -15t-57.5 -41.5t-40.5 -63t-19 -78.5h371zM367 728l61 -30l-107 -103h-42z" />
    <glyph glyph-name="ecircumflex" unicode="&#xea;" horiz-adv-x="584" 
d="M308 -12q-50 0 -95.5 19t-80 54t-54.5 84t-20 109v2q0 55 18.5 103.5t51 84.5t76.5 57t96 21q54 0 97 -20.5t73.5 -56.5t47 -84.5t16.5 -105.5v-10.5t-1 -9.5h-423q3 -48 21 -85t45 -63t61.5 -39.5t72.5 -13.5q60 0 101.5 23t73.5 57l34 -30q-39 -42 -88.5 -69
t-122.5 -27zM481 279q-3 39 -15.5 74.5t-35 63t-55.5 44t-77 16.5q-38 0 -71 -15t-57.5 -41.5t-40.5 -63t-19 -78.5h371zM280 717h40l100 -122h-47l-74 68l-74 -68h-45z" />
    <glyph glyph-name="edieresis" unicode="&#xeb;" horiz-adv-x="584" 
d="M308 -12q-50 0 -95.5 19t-80 54t-54.5 84t-20 109v2q0 55 18.5 103.5t51 84.5t76.5 57t96 21q54 0 97 -20.5t73.5 -56.5t47 -84.5t16.5 -105.5v-10.5t-1 -9.5h-423q3 -48 21 -85t45 -63t61.5 -39.5t72.5 -13.5q60 0 101.5 23t73.5 57l34 -30q-39 -42 -88.5 -69
t-122.5 -27zM481 279q-3 39 -15.5 74.5t-35 63t-55.5 44t-77 16.5q-38 0 -71 -15t-57.5 -41.5t-40.5 -63t-19 -78.5h371zM347 675h69v-80h-69v80zM184 675h69v-80h-69v80z" />
    <glyph glyph-name="igrave" unicode="&#xec;" horiz-adv-x="249" 
d="M100 510h49v-510h-49v510zM-4 698l61 30l88 -133h-42z" />
    <glyph glyph-name="iacute" unicode="&#xed;" horiz-adv-x="249" 
d="M100 510h49v-510h-49v510zM191 728l61 -30l-107 -103h-42z" />
    <glyph glyph-name="icircumflex" unicode="&#xee;" horiz-adv-x="249" 
d="M100 510h49v-510h-49v510zM104 717h40l100 -122h-47l-74 68l-74 -68h-45z" />
    <glyph glyph-name="idieresis" unicode="&#xef;" horiz-adv-x="249" 
d="M100 510h49v-510h-49v510zM171 675h69v-80h-69v80zM8 675h69v-80h-69v80z" />
    <glyph glyph-name="eth" unicode="&#xf0;" horiz-adv-x="639" 
d="M388 653q41 -40 76 -82.5t61 -89t40.5 -96.5t14.5 -104v-2q0 -65 -19.5 -119t-54.5 -92t-83.5 -59t-107.5 -21q-54 0 -101 21t-81.5 57.5t-54.5 85t-20 103.5v2q0 57 20.5 104t55 80t79 51t91.5 18q69 0 118 -26.5t82 -59.5q-21 50 -62.5 102t-98.5 104l-110 -55l-22 36
l99 49q-20 18 -41.5 35.5t-44.5 34.5h77q14 -11 27.5 -23t26.5 -24l99 50l22 -36zM320 34q45 0 83 17t65.5 46.5t43 69.5t15.5 87v2q0 45 -16 83.5t-44.5 66.5t-68.5 44t-88 16q-45 0 -81.5 -16t-62.5 -44.5t-40.5 -67.5t-14.5 -84v-2q0 -45 16 -84.5t44 -69t66.5 -47
t82.5 -17.5z" />
    <glyph glyph-name="ntilde" unicode="&#xf1;" horiz-adv-x="613" 
d="M93 510h49v-95q26 45 70 76t114 31q48 0 86 -15.5t64.5 -43.5t40 -66.5t13.5 -84.5v-312h-49v303q0 79 -42 126.5t-120 47.5q-38 0 -70 -13.5t-56 -37.5t-37.5 -57.5t-13.5 -73.5v-295h-49v510zM378 595q-14 0 -30 6t-35 14q-17 8 -33.5 14.5t-29.5 6.5
q-18 0 -28.5 -10.5t-21.5 -39.5l-34 9q14 54 34 73.5t50 19.5q14 0 30 -6t35 -14q17 -8 33.5 -14.5t29.5 -6.5q18 0 28.5 10.5t21.5 39.5l34 -9q-14 -54 -34 -73.5t-50 -19.5z" />
    <glyph glyph-name="ograve" unicode="&#xf2;" horiz-adv-x="640" 
d="M319 -12q-57 0 -104.5 21.5t-82.5 57.5t-54.5 84t-19.5 102v2q0 54 19.5 102t55 85t83.5 58.5t105 21.5t104.5 -21.5t82.5 -57.5t54.5 -84t19.5 -102v-2q0 -54 -19.5 -102t-55 -85t-83.5 -58.5t-105 -21.5zM321 34q45 0 83.5 17.5t66 47t43 69.5t15.5 85v2q0 46 -16 86.5
t-44.5 70.5t-67 47t-82.5 17q-45 0 -83.5 -17.5t-66 -47t-43 -69.5t-15.5 -85v-2q0 -46 16 -86.5t44.5 -70.5t67 -47t82.5 -17zM192 698l61 30l88 -133h-42z" />
    <glyph glyph-name="oacute" unicode="&#xf3;" horiz-adv-x="640" 
d="M319 -12q-57 0 -104.5 21.5t-82.5 57.5t-54.5 84t-19.5 102v2q0 54 19.5 102t55 85t83.5 58.5t105 21.5t104.5 -21.5t82.5 -57.5t54.5 -84t19.5 -102v-2q0 -54 -19.5 -102t-55 -85t-83.5 -58.5t-105 -21.5zM321 34q45 0 83.5 17.5t66 47t43 69.5t15.5 85v2q0 46 -16 86.5
t-44.5 70.5t-67 47t-82.5 17q-45 0 -83.5 -17.5t-66 -47t-43 -69.5t-15.5 -85v-2q0 -46 16 -86.5t44.5 -70.5t67 -47t82.5 -17zM387 728l61 -30l-107 -103h-42z" />
    <glyph glyph-name="ocircumflex" unicode="&#xf4;" horiz-adv-x="640" 
d="M319 -12q-57 0 -104.5 21.5t-82.5 57.5t-54.5 84t-19.5 102v2q0 54 19.5 102t55 85t83.5 58.5t105 21.5t104.5 -21.5t82.5 -57.5t54.5 -84t19.5 -102v-2q0 -54 -19.5 -102t-55 -85t-83.5 -58.5t-105 -21.5zM321 34q45 0 83.5 17.5t66 47t43 69.5t15.5 85v2q0 46 -16 86.5
t-44.5 70.5t-67 47t-82.5 17q-45 0 -83.5 -17.5t-66 -47t-43 -69.5t-15.5 -85v-2q0 -46 16 -86.5t44.5 -70.5t67 -47t82.5 -17zM300 717h40l100 -122h-47l-74 68l-74 -68h-45z" />
    <glyph glyph-name="otilde" unicode="&#xf5;" horiz-adv-x="640" 
d="M319 -12q-57 0 -104.5 21.5t-82.5 57.5t-54.5 84t-19.5 102v2q0 54 19.5 102t55 85t83.5 58.5t105 21.5t104.5 -21.5t82.5 -57.5t54.5 -84t19.5 -102v-2q0 -54 -19.5 -102t-55 -85t-83.5 -58.5t-105 -21.5zM321 34q45 0 83.5 17.5t66 47t43 69.5t15.5 85v2q0 46 -16 86.5
t-44.5 70.5t-67 47t-82.5 17q-45 0 -83.5 -17.5t-66 -47t-43 -69.5t-15.5 -85v-2q0 -46 16 -86.5t44.5 -70.5t67 -47t82.5 -17zM387 595q-14 0 -30 6t-35 14q-17 8 -33.5 14.5t-29.5 6.5q-18 0 -28.5 -10.5t-21.5 -39.5l-34 9q14 54 34 73.5t50 19.5q14 0 30 -6t35 -14
q17 -8 33.5 -14.5t29.5 -6.5q18 0 28.5 10.5t21.5 39.5l34 -9q-14 -54 -34 -73.5t-50 -19.5z" />
    <glyph glyph-name="odieresis" unicode="&#xf6;" horiz-adv-x="640" 
d="M319 -12q-57 0 -104.5 21.5t-82.5 57.5t-54.5 84t-19.5 102v2q0 54 19.5 102t55 85t83.5 58.5t105 21.5t104.5 -21.5t82.5 -57.5t54.5 -84t19.5 -102v-2q0 -54 -19.5 -102t-55 -85t-83.5 -58.5t-105 -21.5zM321 34q45 0 83.5 17.5t66 47t43 69.5t15.5 85v2q0 46 -16 86.5
t-44.5 70.5t-67 47t-82.5 17q-45 0 -83.5 -17.5t-66 -47t-43 -69.5t-15.5 -85v-2q0 -46 16 -86.5t44.5 -70.5t67 -47t82.5 -17zM367 675h69v-80h-69v80zM204 675h69v-80h-69v80z" />
    <glyph glyph-name="divide" unicode="&#xf7;" horiz-adv-x="620" 
d="M270 589h80v-89h-80v89zM68 328v48h484v-48h-484zM270 204h80v-89h-80v89z" />
    <glyph glyph-name="oslash" unicode="&#xf8;" horiz-adv-x="640" 
d="M597 517l-80 -84q31 -35 48 -80t17 -96v-2q0 -54 -19.5 -102t-55 -85t-83.5 -58.5t-105 -21.5q-49 0 -91.5 16t-75.5 44l-52 -53h-57l79 82q-30 36 -47 80.5t-17 95.5v2q0 54 19.5 102t55 85t83.5 58.5t105 21.5q49 0 91.5 -16t75.5 -45l52 56h57zM321 33q46 0 84 17.5
t66 47.5t43.5 70t15.5 85q0 42 -13 78.5t-36 65.5l-297 -312q27 -25 62 -38.5t75 -13.5zM110 257q0 -42 12 -78.5t35 -65.5l299 311q-27 25 -62 39t-75 14q-46 0 -84.5 -17.5t-66 -47.5t-43 -70t-15.5 -85z" />
    <glyph glyph-name="ugrave" unicode="&#xf9;" horiz-adv-x="613" 
d="M287 -12q-48 0 -86 15.5t-64.5 43.5t-40 66.5t-13.5 84.5v312h49v-303q0 -79 42 -126.5t120 -47.5q37 0 69.5 13.5t56.5 37.5t37.5 57.5t13.5 73.5v295h49v-510h-49v95q-26 -45 -70 -76t-114 -31zM173 698l61 30l88 -133h-42z" />
    <glyph glyph-name="uacute" unicode="&#xfa;" horiz-adv-x="613" 
d="M287 -12q-48 0 -86 15.5t-64.5 43.5t-40 66.5t-13.5 84.5v312h49v-303q0 -79 42 -126.5t120 -47.5q37 0 69.5 13.5t56.5 37.5t37.5 57.5t13.5 73.5v295h49v-510h-49v95q-26 -45 -70 -76t-114 -31zM368 728l61 -30l-107 -103h-42z" />
    <glyph glyph-name="ucircumflex" unicode="&#xfb;" horiz-adv-x="613" 
d="M287 -12q-48 0 -86 15.5t-64.5 43.5t-40 66.5t-13.5 84.5v312h49v-303q0 -79 42 -126.5t120 -47.5q37 0 69.5 13.5t56.5 37.5t37.5 57.5t13.5 73.5v295h49v-510h-49v95q-26 -45 -70 -76t-114 -31zM281 717h40l100 -122h-47l-74 68l-74 -68h-45z" />
    <glyph glyph-name="udieresis" unicode="&#xfc;" horiz-adv-x="613" 
d="M287 -12q-48 0 -86 15.5t-64.5 43.5t-40 66.5t-13.5 84.5v312h49v-303q0 -79 42 -126.5t120 -47.5q37 0 69.5 13.5t56.5 37.5t37.5 57.5t13.5 73.5v295h49v-510h-49v95q-26 -45 -70 -76t-114 -31zM348 675h69v-80h-69v80zM185 675h69v-80h-69v80z" />
    <glyph glyph-name="yacute" unicode="&#xfd;" horiz-adv-x="588" 
d="M492 510h54l-221 -528q-34 -80 -74.5 -112.5t-95.5 -32.5q-29 0 -52 5.5t-49 16.5l17 43q20 -10 39 -14.5t48 -4.5q20 0 37 6t32 20.5t29 37.5t28 56l-245 507h57l212 -456zM365 728l61 -30l-107 -103h-42z" />
    <glyph glyph-name="thorn" unicode="&#xfe;" horiz-adv-x="660" 
d="M93 730h49v-334q16 25 37 48t46.5 40t57 27.5t69.5 10.5q46 0 90.5 -18t79.5 -52t56.5 -83.5t21.5 -111.5v-2q0 -62 -21.5 -111.5t-56.5 -84t-79.5 -53t-90.5 -18.5q-38 0 -70 10t-57.5 27t-46 39t-36.5 46v-270h-49v890zM347 35q42 0 78.5 15t63.5 43t42.5 68.5
t15.5 91.5v2q0 50 -16 91t-43.5 69.5t-64 44t-76.5 15.5t-77.5 -16t-66.5 -45t-46.5 -69t-17.5 -89v-2q0 -49 17.5 -89.5t46.5 -69t66.5 -44.5t77.5 -16z" />
    <glyph glyph-name="ydieresis" unicode="&#xff;" horiz-adv-x="588" 
d="M492 510h54l-221 -528q-34 -80 -74.5 -112.5t-95.5 -32.5q-29 0 -52 5.5t-49 16.5l17 43q20 -10 39 -14.5t48 -4.5q20 0 37 6t32 20.5t29 37.5t28 56l-245 507h57l212 -456zM345 675h69v-80h-69v80zM182 675h69v-80h-69v80z" />
    <glyph glyph-name="Amacron" unicode="&#x100;" horiz-adv-x="790" 
d="M370 705h50l326 -705h-57l-89 196h-413l-89 -196h-54zM578 243l-184 405l-185 -405h369zM240 850h310v-49h-310v49z" />
    <glyph glyph-name="amacron" unicode="&#x101;" horiz-adv-x="574" 
d="M248 -12q-36 0 -71 10t-63 30t-45.5 50t-17.5 70v2q0 40 16.5 71t45.5 52t70 32t91 11q54 0 93 -6t76 -16v22q0 78 -44.5 117t-123.5 39q-47 0 -86 -11.5t-74 -29.5l-18 43q42 20 85 32t96 12q105 0 161 -56q52 -52 52 -144v-318h-48v85q-13 -18 -31.5 -35.5t-42.5 -31
t-54.5 -22t-66.5 -8.5zM251 34q39 0 74 11.5t61.5 32t42 49.5t15.5 64v58q-32 8 -75 15.5t-98 7.5q-81 0 -124.5 -32.5t-43.5 -86.5v-2q0 -28 12 -49.5t32.5 -36.5t47.5 -23t56 -8zM140 668h294v-47h-294v47z" />
    <glyph glyph-name="Abreve" unicode="&#x102;" horiz-adv-x="790" 
d="M370 705h50l326 -705h-57l-89 196h-413l-89 -196h-54zM578 243l-184 405l-185 -405h369zM395 773q-56 0 -92.5 26t-40.5 74h44q8 -24 30 -38t59 -14t59 14t30 38h44q-4 -48 -40.5 -74t-92.5 -26z" />
    <glyph glyph-name="abreve" unicode="&#x103;" horiz-adv-x="574" 
d="M248 -12q-36 0 -71 10t-63 30t-45.5 50t-17.5 70v2q0 40 16.5 71t45.5 52t70 32t91 11q54 0 93 -6t76 -16v22q0 78 -44.5 117t-123.5 39q-47 0 -86 -11.5t-74 -29.5l-18 43q42 20 85 32t96 12q105 0 161 -56q52 -52 52 -144v-318h-48v85q-13 -18 -31.5 -35.5t-42.5 -31
t-54.5 -22t-66.5 -8.5zM251 34q39 0 74 11.5t61.5 32t42 49.5t15.5 64v58q-32 8 -75 15.5t-98 7.5q-81 0 -124.5 -32.5t-43.5 -86.5v-2q0 -28 12 -49.5t32.5 -36.5t47.5 -23t56 -8zM287 593q-56 0 -92.5 29.5t-40.5 82.5h39q9 -28 32 -46t62 -18t62 18t32 46h39
q-4 -53 -40.5 -82.5t-92.5 -29.5z" />
    <glyph glyph-name="Aogonek" unicode="&#x104;" horiz-adv-x="790" 
d="M755 -164q-63 2 -94.5 23t-31.5 56q0 26 14.5 46.5t42.5 43.5l-86 191h-413l-89 -196h-54l326 705h50l326 -705h-11q-29 -23 -42.5 -40.5t-13.5 -38.5t17 -33t59 -16v-36zM578 243l-184 405l-185 -405h369z" />
    <glyph glyph-name="aogonek" unicode="&#x105;" horiz-adv-x="574" 
d="M507 -164q-63 2 -94.5 23t-31.5 56q0 26 16 48.5t46 45.5v76q-13 -18 -31.5 -35.5t-42.5 -31t-54.5 -22t-66.5 -8.5t-71 10t-63 30t-45.5 50t-17.5 70v2q0 40 16.5 71t45.5 52t70 32t91 11q54 0 93 -6t76 -16v22q0 78 -44.5 117t-123.5 39q-47 0 -86 -11.5t-74 -29.5
l-18 43q42 20 85 32t96 12q105 0 161 -56q52 -52 52 -144v-318h-4q-29 -23 -42.5 -40.5t-13.5 -38.5t17 -33t59 -16v-36zM251 34q39 0 74 11.5t61.5 32t42 49.5t15.5 64v58q-32 8 -75 15.5t-98 7.5q-81 0 -124.5 -32.5t-43.5 -86.5v-2q0 -28 12 -49.5t32.5 -36.5t47.5 -23
t56 -8z" />
    <glyph glyph-name="Cacute" unicode="&#x106;" horiz-adv-x="738" 
d="M421 -12q-75 0 -139 28t-110.5 76.5t-72.5 114.5t-26 141v2q0 74 26.5 140t73 115.5t110.5 78t140 28.5q47 0 85 -8t70.5 -23t61 -35.5t55.5 -45.5l-37 -38q-23 22 -48 41t-53.5 32.5t-62 21.5t-72.5 8q-63 0 -117 -24t-93.5 -66.5t-62 -99.5t-22.5 -123v-2
q0 -66 23 -123.5t62.5 -100t93.5 -67t117 -24.5q76 0 132 28t109 81l35 -34q-28 -27 -57.5 -49.5t-63 -38.5t-72.5 -25t-85 -9zM490 893l59 -28l-107 -90h-45z" />
    <glyph glyph-name="cacute" unicode="&#x107;" horiz-adv-x="571" 
d="M318 -12q-55 0 -102.5 21.5t-82.5 57.5t-55 84t-20 102v2q0 54 20 102t55 85t82.5 58.5t102.5 21.5q36 0 65.5 -7.5t54.5 -20.5t45.5 -30t38.5 -36l-35 -36q-33 34 -73 59t-97 25q-44 0 -81.5 -17t-65 -46.5t-43.5 -69.5t-16 -86v-2q0 -46 16.5 -86.5t45 -70.5t66.5 -47
t82 -17q54 0 96.5 24.5t74.5 60.5l34 -30q-39 -44 -88.5 -72.5t-119.5 -28.5zM380 728l61 -30l-107 -103h-42z" />
    <glyph glyph-name="Cdotaccent" unicode="&#x10a;" horiz-adv-x="738" 
d="M421 -12q-75 0 -139 28t-110.5 76.5t-72.5 114.5t-26 141v2q0 74 26.5 140t73 115.5t110.5 78t140 28.5q47 0 85 -8t70.5 -23t61 -35.5t55.5 -45.5l-37 -38q-23 22 -48 41t-53.5 32.5t-62 21.5t-72.5 8q-63 0 -117 -24t-93.5 -66.5t-62 -99.5t-22.5 -123v-2
q0 -66 23 -123.5t62.5 -100t93.5 -67t117 -24.5q76 0 132 28t109 81l35 -34q-28 -27 -57.5 -49.5t-63 -38.5t-72.5 -25t-85 -9zM380 851h76v-76h-76v76z" />
    <glyph glyph-name="cdotaccent" unicode="&#x10b;" horiz-adv-x="571" 
d="M318 -12q-55 0 -102.5 21.5t-82.5 57.5t-55 84t-20 102v2q0 54 20 102t55 85t82.5 58.5t102.5 21.5q36 0 65.5 -7.5t54.5 -20.5t45.5 -30t38.5 -36l-35 -36q-33 34 -73 59t-97 25q-44 0 -81.5 -17t-65 -46.5t-43.5 -69.5t-16 -86v-2q0 -46 16.5 -86.5t45 -70.5t66.5 -47
t82 -17q54 0 96.5 24.5t74.5 60.5l34 -30q-39 -44 -88.5 -72.5t-119.5 -28.5zM277 676h72v-81h-72v81z" />
    <glyph glyph-name="Ccaron" unicode="&#x10c;" horiz-adv-x="738" 
d="M421 -12q-75 0 -139 28t-110.5 76.5t-72.5 114.5t-26 141v2q0 74 26.5 140t73 115.5t110.5 78t140 28.5q47 0 85 -8t70.5 -23t61 -35.5t55.5 -45.5l-37 -38q-23 22 -48 41t-53.5 32.5t-62 21.5t-72.5 8q-63 0 -117 -24t-93.5 -66.5t-62 -99.5t-22.5 -123v-2
q0 -66 23 -123.5t62.5 -100t93.5 -67t117 -24.5q76 0 132 28t109 81l35 -34q-28 -27 -57.5 -49.5t-63 -38.5t-72.5 -25t-85 -9zM441 775h-46l-103 107h54l73 -61l73 61h52z" />
    <glyph glyph-name="ccaron" unicode="&#x10d;" horiz-adv-x="571" 
d="M318 -12q-55 0 -102.5 21.5t-82.5 57.5t-55 84t-20 102v2q0 54 20 102t55 85t82.5 58.5t102.5 21.5q36 0 65.5 -7.5t54.5 -20.5t45.5 -30t38.5 -36l-35 -36q-33 34 -73 59t-97 25q-44 0 -81.5 -17t-65 -46.5t-43.5 -69.5t-16 -86v-2q0 -46 16.5 -86.5t45 -70.5t66.5 -47
t82 -17q54 0 96.5 24.5t74.5 60.5l34 -30q-39 -44 -88.5 -72.5t-119.5 -28.5zM333 595h-40l-100 122h47l74 -68l74 68h45z" />
    <glyph glyph-name="Dcaron" unicode="&#x10e;" horiz-adv-x="782" 
d="M104 700h233q82 0 150.5 -26.5t118 -73.5t76.5 -110.5t27 -137.5v-2q0 -74 -27 -138t-76.5 -111t-118 -74t-150.5 -27h-233v700zM156 652v-604h181q73 0 132 23.5t100 64t63.5 95t22.5 117.5v2q0 62 -22.5 117t-63.5 96t-100 65t-132 24h-181zM398 765h-46l-103 107h54
l73 -61l73 61h52z" />
    <glyph glyph-name="dcaron" unicode="&#x10f;" horiz-adv-x="660" 
d="M308 -12q-46 0 -90.5 18t-79.5 52t-56.5 83.5t-21.5 111.5v2q0 62 21.5 111.5t56.5 84t79.5 53t90.5 18.5q38 0 70 -10t57.5 -27t46 -39t36.5 -46v330h49v-730h-49v114q-17 -25 -37.5 -48t-46 -40t-57 -27.5t-69.5 -10.5zM313 35q40 0 77.5 16t66.5 45t46.5 69t17.5 89v2
q0 49 -17.5 89.5t-46.5 69t-66.5 44.5t-77.5 16q-42 0 -78.5 -15t-63.5 -43t-42.5 -68.5t-15.5 -91.5v-2q0 -50 16 -91t43.5 -69.5t64 -44t76.5 -15.5zM654 730h61v-3l-49 -146h-29z" />
    <glyph glyph-name="Dcroat" unicode="&#x110;" horiz-adv-x="812" 
d="M134 328h-75v48h75v324h233q82 0 150.5 -26.5t118 -73.5t76.5 -110.5t27 -137.5v-2q0 -74 -27 -138t-76.5 -111t-118 -74t-150.5 -27h-233v328zM186 328v-280h181q73 0 132 23.5t100 64t63.5 95t22.5 117.5v2q0 62 -22.5 117t-63.5 96t-100 65t-132 24h-181v-276h232v-48
h-232z" />
    <glyph glyph-name="dcroat" unicode="&#x111;" horiz-adv-x="660" 
d="M333 663h185v67h49v-67h70v-45h-70v-618h-49v114q-17 -25 -37.5 -48t-46 -40t-57 -27.5t-69.5 -10.5q-46 0 -90.5 18t-79.5 52t-56.5 83.5t-21.5 111.5v2q0 62 21.5 111.5t56.5 84t79.5 53t90.5 18.5q38 0 70 -10t57.5 -27t46 -39t36.5 -46v218h-185v45zM313 35
q40 0 77.5 16t66.5 45t46.5 69t17.5 89v2q0 49 -17.5 89.5t-46.5 69t-66.5 44.5t-77.5 16q-42 0 -78.5 -15t-63.5 -43t-42.5 -68.5t-15.5 -91.5v-2q0 -50 16 -91t43.5 -69.5t64 -44t76.5 -15.5z" />
    <glyph glyph-name="Emacron" unicode="&#x112;" horiz-adv-x="670" 
d="M104 700h498v-48h-446v-275h401v-48h-401v-281h451v-48h-503v700zM200 840h310v-49h-310v49z" />
    <glyph glyph-name="emacron" unicode="&#x113;" horiz-adv-x="584" 
d="M308 -12q-50 0 -95.5 19t-80 54t-54.5 84t-20 109v2q0 55 18.5 103.5t51 84.5t76.5 57t96 21q54 0 97 -20.5t73.5 -56.5t47 -84.5t16.5 -105.5v-10.5t-1 -9.5h-423q3 -48 21 -85t45 -63t61.5 -39.5t72.5 -13.5q60 0 101.5 23t73.5 57l34 -30q-39 -42 -88.5 -69
t-122.5 -27zM481 279q-3 39 -15.5 74.5t-35 63t-55.5 44t-77 16.5q-38 0 -71 -15t-57.5 -41.5t-40.5 -63t-19 -78.5h371zM153 668h294v-47h-294v47z" />
    <glyph glyph-name="Ebreve" unicode="&#x114;" horiz-adv-x="670" 
d="M104 700h498v-48h-446v-275h401v-48h-401v-281h451v-48h-503v700zM355 763q-56 0 -92.5 26t-40.5 74h44q8 -24 30 -38t59 -14t59 14t30 38h44q-4 -48 -40.5 -74t-92.5 -26z" />
    <glyph glyph-name="ebreve" unicode="&#x115;" horiz-adv-x="584" 
d="M308 -12q-50 0 -95.5 19t-80 54t-54.5 84t-20 109v2q0 55 18.5 103.5t51 84.5t76.5 57t96 21q54 0 97 -20.5t73.5 -56.5t47 -84.5t16.5 -105.5v-10.5t-1 -9.5h-423q3 -48 21 -85t45 -63t61.5 -39.5t72.5 -13.5q60 0 101.5 23t73.5 57l34 -30q-39 -42 -88.5 -69
t-122.5 -27zM481 279q-3 39 -15.5 74.5t-35 63t-55.5 44t-77 16.5q-38 0 -71 -15t-57.5 -41.5t-40.5 -63t-19 -78.5h371zM300 593q-56 0 -92.5 29.5t-40.5 82.5h39q9 -28 32 -46t62 -18t62 18t32 46h39q-4 -53 -40.5 -82.5t-92.5 -29.5z" />
    <glyph glyph-name="Edotaccent" unicode="&#x116;" horiz-adv-x="670" 
d="M104 700h498v-48h-446v-275h401v-48h-401v-281h451v-48h-503v700zM317 841h76v-76h-76v76z" />
    <glyph glyph-name="edotaccent" unicode="&#x117;" horiz-adv-x="584" 
d="M308 -12q-50 0 -95.5 19t-80 54t-54.5 84t-20 109v2q0 55 18.5 103.5t51 84.5t76.5 57t96 21q54 0 97 -20.5t73.5 -56.5t47 -84.5t16.5 -105.5v-10.5t-1 -9.5h-423q3 -48 21 -85t45 -63t61.5 -39.5t72.5 -13.5q60 0 101.5 23t73.5 57l34 -30q-39 -42 -88.5 -69
t-122.5 -27zM481 279q-3 39 -15.5 74.5t-35 63t-55.5 44t-77 16.5q-38 0 -71 -15t-57.5 -41.5t-40.5 -63t-19 -78.5h371zM264 676h72v-81h-72v81z" />
    <glyph glyph-name="Eogonek" unicode="&#x118;" horiz-adv-x="670" 
d="M104 700h498v-48h-446v-275h401v-48h-401v-281h451v-48h-21q-29 -23 -42.5 -40.5t-13.5 -38.5t17 -33t59 -16v-36q-63 2 -94.5 23t-31.5 56q0 24 13 44t38 41h-427v700z" />
    <glyph glyph-name="eogonek" unicode="&#x119;" horiz-adv-x="584" 
d="M519 84q-13 -14 -23.5 -23.5t-27.5 -23.5q-24 -20 -39 -35.5t-23.5 -28t-12 -24t-3.5 -22.5q0 -26 17.5 -38t59.5 -17v-36q-126 5 -126 84q0 21 9.5 39t28.5 37q-17 -4 -34 -6t-37 -2q-50 0 -95.5 19t-80 54t-54.5 84t-20 109v2q0 55 18.5 103.5t51 84.5t76.5 57t96 21
q54 0 97 -20.5t73.5 -56.5t47 -84.5t16.5 -105.5v-10.5t-1 -9.5h-423q3 -48 21 -85t45 -63t61.5 -39.5t72.5 -13.5q60 0 101.5 23t73.5 57zM481 279q-3 39 -15.5 74.5t-35 63t-55.5 44t-77 16.5q-38 0 -71 -15t-57.5 -41.5t-40.5 -63t-19 -78.5h371z" />
    <glyph glyph-name="Ecaron" unicode="&#x11a;" horiz-adv-x="670" 
d="M104 700h498v-48h-446v-275h401v-48h-401v-281h451v-48h-503v700zM378 765h-46l-103 107h54l73 -61l73 61h52z" />
    <glyph glyph-name="ecaron" unicode="&#x11b;" horiz-adv-x="584" 
d="M308 -12q-50 0 -95.5 19t-80 54t-54.5 84t-20 109v2q0 55 18.5 103.5t51 84.5t76.5 57t96 21q54 0 97 -20.5t73.5 -56.5t47 -84.5t16.5 -105.5v-10.5t-1 -9.5h-423q3 -48 21 -85t45 -63t61.5 -39.5t72.5 -13.5q60 0 101.5 23t73.5 57l34 -30q-39 -42 -88.5 -69
t-122.5 -27zM481 279q-3 39 -15.5 74.5t-35 63t-55.5 44t-77 16.5q-38 0 -71 -15t-57.5 -41.5t-40.5 -63t-19 -78.5h371zM320 595h-40l-100 122h47l74 -68l74 68h45z" />
    <glyph glyph-name="Gbreve" unicode="&#x11e;" horiz-adv-x="784" 
d="M425 -12q-83 0 -148.5 28.5t-110.5 77.5t-69 114.5t-24 139.5v2q0 71 24.5 136.5t70 115.5t109.5 80t142 30q43 0 78.5 -6t66 -18t58 -29t53.5 -39l-34 -39q-41 36 -93.5 60t-131.5 24q-64 0 -117 -25t-91.5 -68t-59.5 -100t-21 -120v-2q0 -68 20.5 -126t59.5 -100
t94.5 -66t125.5 -24q33 0 65 6.5t60.5 17.5t53.5 25.5t44 30.5v201h-234v48h284v-270q-48 -42 -118.5 -73.5t-156.5 -31.5zM412 773q-56 0 -92.5 26t-40.5 74h44q8 -24 30 -38t59 -14t59 14t30 38h44q-4 -48 -40.5 -74t-92.5 -26z" />
    <glyph glyph-name="gbreve" unicode="&#x11f;" horiz-adv-x="660" 
d="M317 -162q-129 0 -234 78l29 40q93 -72 206 -72q44 0 80.5 12.5t63 37.5t41.5 62t15 86v74q-17 -24 -38 -45t-47 -37.5t-58 -26t-70 -9.5q-46 0 -90 17t-78.5 48.5t-55.5 75.5t-21 99v2q0 55 21 100t55.5 76.5t78.5 48.5t90 17q38 0 70.5 -9.5t58.5 -25t47 -36.5t37 -43
v102h49v-431q0 -56 -17 -99t-48 -74q-33 -33 -80.5 -50.5t-104.5 -17.5zM310 85q40 0 78 14t67.5 39.5t47.5 61t18 79.5v2q0 44 -18 80t-47.5 61.5t-67.5 39t-78 13.5t-76 -13.5t-63 -38.5t-42.5 -60.5t-15.5 -80.5v-2q0 -43 16 -79t43 -61.5t63 -40t75 -14.5zM332 593
q-56 0 -92.5 29.5t-40.5 82.5h39q9 -28 32 -46t62 -18t62 18t32 46h39q-4 -53 -40.5 -82.5t-92.5 -29.5z" />
    <glyph glyph-name="Gdotaccent" unicode="&#x120;" horiz-adv-x="784" 
d="M425 -12q-83 0 -148.5 28.5t-110.5 77.5t-69 114.5t-24 139.5v2q0 71 24.5 136.5t70 115.5t109.5 80t142 30q43 0 78.5 -6t66 -18t58 -29t53.5 -39l-34 -39q-41 36 -93.5 60t-131.5 24q-64 0 -117 -25t-91.5 -68t-59.5 -100t-21 -120v-2q0 -68 20.5 -126t59.5 -100
t94.5 -66t125.5 -24q33 0 65 6.5t60.5 17.5t53.5 25.5t44 30.5v201h-234v48h284v-270q-48 -42 -118.5 -73.5t-156.5 -31.5zM374 851h76v-76h-76v76z" />
    <glyph glyph-name="gdotaccent" unicode="&#x121;" horiz-adv-x="660" 
d="M317 -162q-129 0 -234 78l29 40q93 -72 206 -72q44 0 80.5 12.5t63 37.5t41.5 62t15 86v74q-17 -24 -38 -45t-47 -37.5t-58 -26t-70 -9.5q-46 0 -90 17t-78.5 48.5t-55.5 75.5t-21 99v2q0 55 21 100t55.5 76.5t78.5 48.5t90 17q38 0 70.5 -9.5t58.5 -25t47 -36.5t37 -43
v102h49v-431q0 -56 -17 -99t-48 -74q-33 -33 -80.5 -50.5t-104.5 -17.5zM310 85q40 0 78 14t67.5 39.5t47.5 61t18 79.5v2q0 44 -18 80t-47.5 61.5t-67.5 39t-78 13.5t-76 -13.5t-63 -38.5t-42.5 -60.5t-15.5 -80.5v-2q0 -43 16 -79t43 -61.5t63 -40t75 -14.5zM296 676h72
v-81h-72v81z" />
    <glyph glyph-name="Gcommaaccent" unicode="&#x122;" horiz-adv-x="784" 
d="M425 -12q-83 0 -148.5 28.5t-110.5 77.5t-69 114.5t-24 139.5v2q0 71 24.5 136.5t70 115.5t109.5 80t142 30q43 0 78.5 -6t66 -18t58 -29t53.5 -39l-34 -39q-41 36 -93.5 60t-131.5 24q-64 0 -117 -25t-91.5 -68t-59.5 -100t-21 -120v-2q0 -68 20.5 -126t59.5 -100
t94.5 -66t125.5 -24q33 0 65 6.5t60.5 17.5t53.5 25.5t44 30.5v201h-234v48h284v-270q-48 -42 -118.5 -73.5t-156.5 -31.5zM351 -201q31 7 44 20t11 36h-31v71h72v-62q0 -76 -90 -89z" />
    <glyph glyph-name="gcommaaccent" unicode="&#x123;" horiz-adv-x="660" 
d="M317 -162q-129 0 -234 78l29 40q93 -72 206 -72q44 0 80.5 12.5t63 37.5t41.5 62t15 86v74q-17 -24 -38 -45t-47 -37.5t-58 -26t-70 -9.5q-46 0 -90 17t-78.5 48.5t-55.5 75.5t-21 99v2q0 55 21 100t55.5 76.5t78.5 48.5t90 17q38 0 70.5 -9.5t58.5 -25t47 -36.5t37 -43
v102h49v-431q0 -56 -17 -99t-48 -74q-33 -33 -80.5 -50.5t-104.5 -17.5zM310 85q40 0 78 14t67.5 39.5t47.5 61t18 79.5v2q0 44 -18 80t-47.5 61.5t-67.5 39t-78 13.5t-76 -13.5t-63 -38.5t-42.5 -60.5t-15.5 -80.5v-2q0 -43 16 -79t43 -61.5t63 -40t75 -14.5zM392 722
q-31 -7 -44 -20t-11 -36h31v-71h-72v62q0 76 90 89z" />
    <glyph glyph-name="Hbar" unicode="&#x126;" horiz-adv-x="820" 
d="M59 554h75v146h52v-146h448v146h52v-146h75v-45h-75v-509h-52v323h-448v-323h-52v509h-75v45zM634 371v138h-448v-138h448z" />
    <glyph glyph-name="hbar" unicode="&#x127;" horiz-adv-x="613" 
d="M142 618v-203q26 45 70 76t114 31q48 0 86 -15.5t64.5 -43.5t40 -66.5t13.5 -84.5v-312h-49v303q0 79 -42 126.5t-120 47.5q-38 0 -70 -13.5t-56 -37.5t-37.5 -57.5t-13.5 -73.5v-295h-49v618h-70v45h70v67h49v-67h185v-45h-185z" />
    <glyph glyph-name="Imacron" unicode="&#x12a;" horiz-adv-x="274" 
d="M111 700h52v-700h-52v700zM-18 840h310v-49h-310v49z" />
    <glyph glyph-name="imacron" unicode="&#x12b;" horiz-adv-x="249" 
d="M100 510h49v-510h-49v510zM-23 668h294v-47h-294v47z" />
    <glyph glyph-name="Ibreve" unicode="&#x12c;" horiz-adv-x="274" 
d="M111 700h52v-700h-52v700zM137 763q-56 0 -92.5 26t-40.5 74h44q8 -24 30 -38t59 -14t59 14t30 38h44q-4 -48 -40.5 -74t-92.5 -26z" />
    <glyph glyph-name="ibreve" unicode="&#x12d;" horiz-adv-x="249" 
d="M100 510h49v-510h-49v510zM124 593q-56 0 -92.5 29.5t-40.5 82.5h39q9 -28 32 -46t62 -18t62 18t32 46h39q-4 -53 -40.5 -82.5t-92.5 -29.5z" />
    <glyph glyph-name="Iogonek" unicode="&#x12e;" horiz-adv-x="274" 
d="M179 -164q-63 2 -94.5 23t-31.5 56q0 26 14.5 47t43.5 44v694h52v-700h-4q-29 -23 -42.5 -40.5t-13.5 -38.5t17 -33t59 -16v-36z" />
    <glyph glyph-name="iogonek" unicode="&#x12f;" horiz-adv-x="249" 
d="M166 -164q-63 2 -94.5 23t-31.5 56q0 26 15.5 48t44.5 45v502h49v-510h-3q-29 -23 -42.5 -40.5t-13.5 -38.5t17 -33t59 -16v-36zM94 710h61v-67h-61v67z" />
    <glyph glyph-name="Idotaccent" unicode="&#x130;" horiz-adv-x="274" 
d="M111 700h52v-700h-52v700zM99 841h76v-76h-76v76z" />
    <glyph glyph-name="dotlessi" unicode="&#x131;" horiz-adv-x="249" 
d="M100 510h49v-510h-49v510z" />
    <glyph glyph-name="Kcommaaccent" unicode="&#x136;" horiz-adv-x="715" 
d="M104 700h52v-460l446 460h71l-306 -309l319 -391h-68l-288 354l-174 -176v-178h-52v700zM301 -196q31 7 44 20t11 36h-31v71h72v-62q0 -76 -90 -89z" />
    <glyph glyph-name="kcommaaccent" unicode="&#x137;" horiz-adv-x="560" 
d="M93 730h49v-547l316 327h65l-223 -226l230 -284h-62l-202 249l-124 -125v-124h-49v730zM236 -201q31 7 44 20t11 36h-31v71h72v-62q0 -76 -90 -89z" />
    <glyph glyph-name="Lacute" unicode="&#x139;" horiz-adv-x="619" 
d="M104 700h52v-652h411v-48h-463v700zM210 883l59 -28l-107 -90h-45z" />
    <glyph glyph-name="lacute" unicode="&#x13a;" horiz-adv-x="249" 
d="M100 730h49v-730h-49v730zM196 906l59 -28l-107 -90h-45z" />
    <glyph glyph-name="Lcommaaccent" unicode="&#x13b;" horiz-adv-x="619" 
d="M104 700h52v-652h411v-48h-463v700zM270 -201q31 7 44 20t11 36h-31v71h72v-62q0 -76 -90 -89z" />
    <glyph glyph-name="lcommaaccent" unicode="&#x13c;" horiz-adv-x="249" 
d="M100 730h49v-730h-49v730zM63 -201q31 7 44 20t11 36h-31v71h72v-62q0 -76 -90 -89z" />
    <glyph glyph-name="Lcaron" unicode="&#x13d;" horiz-adv-x="619" 
d="M104 700h52v-652h411v-48h-463v700zM274 700h61v-3l-49 -146h-29z" />
    <glyph glyph-name="lcaron" unicode="&#x13e;" horiz-adv-x="249" 
d="M100 730h49v-730h-49v730zM236 730h61v-3l-49 -146h-29z" />
    <glyph glyph-name="Ldot" unicode="&#x13f;" horiz-adv-x="619" 
d="M421 403h72v-81h-72v81zM104 700h52v-652h411v-48h-463v700z" />
    <glyph glyph-name="ldot" unicode="&#x140;" horiz-adv-x="309" 
d="M244 406h72v-81h-72v81zM100 730h49v-730h-49v730z" />
    <glyph glyph-name="Lslash" unicode="&#x141;" horiz-adv-x="649" 
d="M185 320v-272h412v-48h-463v295l-75 -35v53l75 35v352h51v-327l189 90v-53z" />
    <glyph glyph-name="lslash" unicode="&#x142;" horiz-adv-x="309" 
d="M179 354v-354h-49v327l-76 -42v53l76 42v350h49v-323l76 43v-53z" />
    <glyph glyph-name="Nacute" unicode="&#x143;" horiz-adv-x="790" 
d="M104 700h49l483 -609v609h50v-700h-39l-493 622v-622h-50v700zM467 878l59 -28l-107 -90h-45z" />
    <glyph glyph-name="nacute" unicode="&#x144;" horiz-adv-x="613" 
d="M93 510h49v-95q26 45 70 76t114 31q48 0 86 -15.5t64.5 -43.5t40 -66.5t13.5 -84.5v-312h-49v303q0 79 -42 126.5t-120 47.5q-38 0 -70 -13.5t-56 -37.5t-37.5 -57.5t-13.5 -73.5v-295h-49v510zM378 728l61 -30l-107 -103h-42z" />
    <glyph glyph-name="Ncommaaccent" unicode="&#x145;" horiz-adv-x="790" 
d="M104 700h49l483 -609v609h50v-700h-39l-493 622v-622h-50v700zM334 -196q31 7 44 20t11 36h-31v71h72v-62q0 -76 -90 -89z" />
    <glyph glyph-name="ncommaaccent" unicode="&#x146;" horiz-adv-x="613" 
d="M93 510h49v-95q26 45 70 76t114 31q48 0 86 -15.5t64.5 -43.5t40 -66.5t13.5 -84.5v-312h-49v303q0 79 -42 126.5t-120 47.5q-38 0 -70 -13.5t-56 -37.5t-37.5 -57.5t-13.5 -73.5v-295h-49v510zM250 -201q31 7 44 20t11 36h-31v71h72v-62q0 -76 -90 -89z" />
    <glyph glyph-name="Ncaron" unicode="&#x147;" horiz-adv-x="790" 
d="M104 700h49l483 -609v609h50v-700h-39l-493 622v-622h-50v700zM418 760h-46l-103 107h54l73 -61l73 61h52z" />
    <glyph glyph-name="ncaron" unicode="&#x148;" horiz-adv-x="613" 
d="M93 510h49v-95q26 45 70 76t114 31q48 0 86 -15.5t64.5 -43.5t40 -66.5t13.5 -84.5v-312h-49v303q0 79 -42 126.5t-120 47.5q-38 0 -70 -13.5t-56 -37.5t-37.5 -57.5t-13.5 -73.5v-295h-49v510zM331 595h-40l-100 122h47l74 -68l74 68h45z" />
    <glyph glyph-name="Omacron" unicode="&#x14c;" horiz-adv-x="850" 
d="M424 -12q-80 0 -144.5 29.5t-110.5 79t-71 114.5t-25 137v2q0 72 25.5 137.5t71.5 115.5t111 79.5t145 29.5q79 0 144 -29.5t111 -79t71 -114.5t25 -137v-2q0 -72 -25.5 -137.5t-71.5 -115.5t-111.5 -79.5t-144.5 -29.5zM426 35q65 0 119.5 24.5t94 67t61.5 99.5t22 122
v2q0 65 -22.5 122.5t-62 100t-94.5 67.5t-120 25t-119.5 -24.5t-94 -67t-61.5 -99.5t-22 -122v-2q0 -65 22.5 -122.5t62 -100t94.5 -67.5t120 -25zM270 850h310v-49h-310v49z" />
    <glyph glyph-name="omacron" unicode="&#x14d;" horiz-adv-x="640" 
d="M319 -12q-57 0 -104.5 21.5t-82.5 57.5t-54.5 84t-19.5 102v2q0 54 19.5 102t55 85t83.5 58.5t105 21.5t104.5 -21.5t82.5 -57.5t54.5 -84t19.5 -102v-2q0 -54 -19.5 -102t-55 -85t-83.5 -58.5t-105 -21.5zM321 34q45 0 83.5 17.5t66 47t43 69.5t15.5 85v2q0 46 -16 86.5
t-44.5 70.5t-67 47t-82.5 17q-45 0 -83.5 -17.5t-66 -47t-43 -69.5t-15.5 -85v-2q0 -46 16 -86.5t44.5 -70.5t67 -47t82.5 -17zM173 668h294v-47h-294v47z" />
    <glyph glyph-name="Obreve" unicode="&#x14e;" horiz-adv-x="850" 
d="M424 -12q-80 0 -144.5 29.5t-110.5 79t-71 114.5t-25 137v2q0 72 25.5 137.5t71.5 115.5t111 79.5t145 29.5q79 0 144 -29.5t111 -79t71 -114.5t25 -137v-2q0 -72 -25.5 -137.5t-71.5 -115.5t-111.5 -79.5t-144.5 -29.5zM426 35q65 0 119.5 24.5t94 67t61.5 99.5t22 122
v2q0 65 -22.5 122.5t-62 100t-94.5 67.5t-120 25t-119.5 -24.5t-94 -67t-61.5 -99.5t-22 -122v-2q0 -65 22.5 -122.5t62 -100t94.5 -67.5t120 -25zM425 773q-56 0 -92.5 26t-40.5 74h44q8 -24 30 -38t59 -14t59 14t30 38h44q-4 -48 -40.5 -74t-92.5 -26z" />
    <glyph glyph-name="obreve" unicode="&#x14f;" horiz-adv-x="640" 
d="M319 -12q-57 0 -104.5 21.5t-82.5 57.5t-54.5 84t-19.5 102v2q0 54 19.5 102t55 85t83.5 58.5t105 21.5t104.5 -21.5t82.5 -57.5t54.5 -84t19.5 -102v-2q0 -54 -19.5 -102t-55 -85t-83.5 -58.5t-105 -21.5zM321 34q45 0 83.5 17.5t66 47t43 69.5t15.5 85v2q0 46 -16 86.5
t-44.5 70.5t-67 47t-82.5 17q-45 0 -83.5 -17.5t-66 -47t-43 -69.5t-15.5 -85v-2q0 -46 16 -86.5t44.5 -70.5t67 -47t82.5 -17zM320 593q-56 0 -92.5 29.5t-40.5 82.5h39q9 -28 32 -46t62 -18t62 18t32 46h39q-4 -53 -40.5 -82.5t-92.5 -29.5z" />
    <glyph glyph-name="Ohungarumlaut" unicode="&#x150;" horiz-adv-x="850" 
d="M424 -12q-80 0 -144.5 29.5t-110.5 79t-71 114.5t-25 137v2q0 72 25.5 137.5t71.5 115.5t111 79.5t145 29.5q79 0 144 -29.5t111 -79t71 -114.5t25 -137v-2q0 -72 -25.5 -137.5t-71.5 -115.5t-111.5 -79.5t-144.5 -29.5zM426 35q65 0 119.5 24.5t94 67t61.5 99.5t22 122
v2q0 65 -22.5 122.5t-62 100t-94.5 67.5t-120 25t-119.5 -24.5t-94 -67t-61.5 -99.5t-22 -122v-2q0 -65 22.5 -122.5t62 -100t94.5 -67.5t120 -25zM417 893l59 -28l-107 -90h-45zM557 893l59 -28l-107 -90h-45z" />
    <glyph glyph-name="ohungarumlaut" unicode="&#x151;" horiz-adv-x="640" 
d="M319 -12q-57 0 -104.5 21.5t-82.5 57.5t-54.5 84t-19.5 102v2q0 54 19.5 102t55 85t83.5 58.5t105 21.5t104.5 -21.5t82.5 -57.5t54.5 -84t19.5 -102v-2q0 -54 -19.5 -102t-55 -85t-83.5 -58.5t-105 -21.5zM321 34q45 0 83.5 17.5t66 47t43 69.5t15.5 85v2q0 46 -16 86.5
t-44.5 70.5t-67 47t-82.5 17q-45 0 -83.5 -17.5t-66 -47t-43 -69.5t-15.5 -85v-2q0 -46 16 -86.5t44.5 -70.5t67 -47t82.5 -17zM448 728l55 -29l-101 -104h-43zM312 728l55 -29l-101 -104h-43z" />
    <glyph glyph-name="OE" unicode="&#x152;" horiz-adv-x="1152" 
d="M445 0q-83 0 -151 26.5t-117.5 73.5t-76.5 110.5t-27 137.5v2q0 74 27 138t76.5 111t117.5 74t151 27h639v-48h-431v-275h386v-48h-386v-281h436v-48h-644zM601 48v604h-156q-73 0 -132 -23.5t-100 -64t-63.5 -95t-22.5 -117.5v-2q0 -62 22.5 -117t63.5 -96t100 -65
t132 -24h156z" />
    <glyph glyph-name="oe" unicode="&#x153;" horiz-adv-x="1055" 
d="M318 -12q-56 0 -103.5 21.5t-82.5 57.5t-54.5 84t-19.5 102v2q0 54 20 102t55 85t83 58.5t104 21.5q40 0 76.5 -11.5t66.5 -32.5t53 -49.5t38 -62.5q28 70 85.5 113t132.5 43q53 0 96 -20.5t73.5 -56.5t47 -84.5t16.5 -105.5v-10.5t-1 -9.5h-423q3 -48 21 -85t45 -63
t61.5 -39.5t72.5 -13.5q60 0 101.5 23t73.5 57l34 -30q-39 -42 -88 -69t-121 -27q-37 0 -71.5 11t-64.5 31t-53 49.5t-38 65.5q-15 -34 -38 -63t-53.5 -50t-67 -32.5t-77.5 -11.5zM952 279q-3 39 -15.5 74.5t-35 63t-55.5 44t-77 16.5q-38 0 -71 -15t-57.5 -41.5t-40.5 -63
t-19 -78.5h371zM321 34q45 0 83.5 17.5t66 47t43 69.5t15.5 85v2q0 46 -16 86.5t-44.5 70.5t-67 47t-82.5 17q-45 0 -83.5 -17.5t-66 -47t-43 -69.5t-15.5 -85v-2q0 -46 16 -86.5t44.5 -70.5t67 -47t82.5 -17z" />
    <glyph glyph-name="Racute" unicode="&#x154;" horiz-adv-x="723" 
d="M104 700h294q65 0 115 -18.5t82 -50.5q25 -25 39 -58.5t14 -71.5v-2q0 -44 -15.5 -78.5t-43 -59.5t-65 -40.5t-81.5 -21.5l231 -299h-66l-223 290h-229v-290h-52v700zM392 337q44 0 81.5 11t64.5 31.5t42.5 50t15.5 67.5v2q0 71 -52.5 112t-148.5 41h-239v-315h236z
M423 883l59 -28l-107 -90h-45z" />
    <glyph glyph-name="racute" unicode="&#x155;" 
d="M93 510h49v-145q15 34 38 63t52 49.5t63.5 31t72.5 9.5v-54h-5q-44 0 -84 -16.5t-70.5 -49t-48.5 -80t-18 -109.5v-209h-49v510zM278 728l61 -30l-107 -103h-42z" />
    <glyph glyph-name="Rcommaaccent" unicode="&#x156;" horiz-adv-x="723" 
d="M104 700h294q65 0 115 -18.5t82 -50.5q25 -25 39 -58.5t14 -71.5v-2q0 -44 -15.5 -78.5t-43 -59.5t-65 -40.5t-81.5 -21.5l231 -299h-66l-223 290h-229v-290h-52v700zM392 337q44 0 81.5 11t64.5 31.5t42.5 50t15.5 67.5v2q0 71 -52.5 112t-148.5 41h-239v-315h236z
M290 -196q31 7 44 20t11 36h-31v71h72v-62q0 -76 -90 -89z" />
    <glyph glyph-name="rcommaaccent" unicode="&#x157;" 
d="M93 510h49v-145q15 34 38 63t52 49.5t63.5 31t72.5 9.5v-54h-5q-44 0 -84 -16.5t-70.5 -49t-48.5 -80t-18 -109.5v-209h-49v510zM65 -201q31 7 44 20t11 36h-31v71h72v-62q0 -76 -90 -89z" />
    <glyph glyph-name="Rcaron" unicode="&#x158;" horiz-adv-x="723" 
d="M104 700h294q65 0 115 -18.5t82 -50.5q25 -25 39 -58.5t14 -71.5v-2q0 -44 -15.5 -78.5t-43 -59.5t-65 -40.5t-81.5 -21.5l231 -299h-66l-223 290h-229v-290h-52v700zM392 337q44 0 81.5 11t64.5 31.5t42.5 50t15.5 67.5v2q0 71 -52.5 112t-148.5 41h-239v-315h236z
M374 765h-46l-103 107h54l73 -61l73 61h52z" />
    <glyph glyph-name="rcaron" unicode="&#x159;" 
d="M93 510h49v-145q15 34 38 63t52 49.5t63.5 31t72.5 9.5v-54h-5q-44 0 -84 -16.5t-70.5 -49t-48.5 -80t-18 -109.5v-209h-49v510zM231 595h-40l-100 122h47l74 -68l74 68h45z" />
    <glyph glyph-name="Sacute" unicode="&#x15a;" horiz-adv-x="640" 
d="M341 -10q-84 0 -151.5 28t-130.5 84l34 39q29 -27 57.5 -46.5t58.5 -32t63 -19t72 -6.5t72 10.5t56 29t36 44t13 55.5v2q0 28 -8.5 50t-31 40t-60.5 32.5t-98 26.5q-63 13 -108 30.5t-73.5 41t-41.5 54.5t-13 71v2q0 39 17 72.5t47 58.5t71 39t90 14q76 0 131.5 -21
t108.5 -64l-33 -41q-50 43 -100.5 61t-108.5 18q-39 0 -70.5 -10.5t-54 -28.5t-34.5 -42t-12 -51v-2q0 -28 8.5 -50.5t31 -41t62.5 -33.5t102 -28q122 -25 176 -70.5t54 -122.5v-2q0 -42 -17.5 -77.5t-48 -60.5t-73 -39t-93.5 -14zM400 893l59 -28l-107 -90h-45z" />
    <glyph glyph-name="sacute" unicode="&#x15b;" horiz-adv-x="497" 
d="M258 -10q-56 0 -112 20.5t-97 53.5l29 39q42 -32 88 -49.5t95 -17.5q52 0 87.5 26t35.5 71v2q0 22 -11 38t-30 28t-43 20t-51 16q-31 9 -62.5 19t-56.5 25.5t-40.5 38.5t-15.5 57v2q0 31 12.5 56.5t34.5 44.5t53 29.5t68 10.5q46 0 94.5 -15t86.5 -41l-26 -41
q-35 23 -75.5 37t-81.5 14q-53 0 -84.5 -25.5t-31.5 -63.5v-2q0 -21 12 -36.5t31.5 -26.5t45.5 -19.5t53 -16.5q31 -9 61 -19.5t54 -27t38.5 -39.5t14.5 -57v-2q0 -34 -13.5 -61.5t-37.5 -47t-56 -30t-69 -10.5zM319 728l61 -30l-107 -103h-42z" />
    <glyph glyph-name="Scedilla" unicode="&#x15e;" horiz-adv-x="640" 
d="M233 -122l77 113q-74 5 -134 32.5t-117 78.5l34 39q29 -27 57.5 -46.5t58.5 -32t63 -19t72 -6.5t72 10.5t56 29t36 44t13 55.5v2q0 28 -8.5 50t-31 40t-60.5 32.5t-98 26.5q-63 13 -108 30.5t-73.5 41t-41.5 54.5t-13 71v2q0 39 17 72.5t47 58.5t71 39t90 14
q76 0 131.5 -21t108.5 -64l-33 -41q-50 43 -100.5 61t-108.5 18q-39 0 -70.5 -10.5t-54 -28.5t-34.5 -42t-12 -51v-2q0 -28 8.5 -50.5t31 -41t62.5 -33.5t102 -28q122 -25 176 -70.5t54 -122.5v-2q0 -41 -16 -75t-45 -58.5t-68.5 -39.5t-87.5 -17l-68 -139z" />
    <glyph glyph-name="scedilla" unicode="&#x15f;" horiz-adv-x="497" 
d="M144 -122l78 114q-48 6 -93.5 25t-79.5 47l29 39q42 -32 88 -49.5t95 -17.5q52 0 87.5 26t35.5 71v2q0 22 -11 38t-30 28t-43 20t-51 16q-31 9 -62.5 19t-56.5 25.5t-40.5 38.5t-15.5 57v2q0 31 12.5 56.5t34.5 44.5t53 29.5t68 10.5q46 0 94.5 -15t86.5 -41l-26 -41
q-35 23 -75.5 37t-81.5 14q-53 0 -84.5 -25.5t-31.5 -63.5v-2q0 -21 12 -36.5t31.5 -26.5t45.5 -19.5t53 -16.5q31 -9 61 -19.5t54 -27t38.5 -39.5t14.5 -57v-2q0 -33 -13 -60t-35.5 -46t-53 -30.5t-65.5 -12.5l-68 -138z" />
    <glyph glyph-name="Scaron" unicode="&#x160;" horiz-adv-x="640" 
d="M341 -10q-84 0 -151.5 28t-130.5 84l34 39q29 -27 57.5 -46.5t58.5 -32t63 -19t72 -6.5t72 10.5t56 29t36 44t13 55.5v2q0 28 -8.5 50t-31 40t-60.5 32.5t-98 26.5q-63 13 -108 30.5t-73.5 41t-41.5 54.5t-13 71v2q0 39 17 72.5t47 58.5t71 39t90 14q76 0 131.5 -21
t108.5 -64l-33 -41q-50 43 -100.5 61t-108.5 18q-39 0 -70.5 -10.5t-54 -28.5t-34.5 -42t-12 -51v-2q0 -28 8.5 -50.5t31 -41t62.5 -33.5t102 -28q122 -25 176 -70.5t54 -122.5v-2q0 -42 -17.5 -77.5t-48 -60.5t-73 -39t-93.5 -14zM351 775h-46l-103 107h54l73 -61l73 61h52
z" />
    <glyph glyph-name="scaron" unicode="&#x161;" horiz-adv-x="497" 
d="M258 -10q-56 0 -112 20.5t-97 53.5l29 39q42 -32 88 -49.5t95 -17.5q52 0 87.5 26t35.5 71v2q0 22 -11 38t-30 28t-43 20t-51 16q-31 9 -62.5 19t-56.5 25.5t-40.5 38.5t-15.5 57v2q0 31 12.5 56.5t34.5 44.5t53 29.5t68 10.5q46 0 94.5 -15t86.5 -41l-26 -41
q-35 23 -75.5 37t-81.5 14q-53 0 -84.5 -25.5t-31.5 -63.5v-2q0 -21 12 -36.5t31.5 -26.5t45.5 -19.5t53 -16.5q31 -9 61 -19.5t54 -27t38.5 -39.5t14.5 -57v-2q0 -34 -13.5 -61.5t-37.5 -47t-56 -30t-69 -10.5zM272 595h-40l-100 122h47l74 -68l74 68h45z" />
    <glyph glyph-name="Tcommaaccent" unicode="&#x162;" horiz-adv-x="648" 
d="M298 652h-244v48h540v-48h-244v-652h-52v652zM263 -201q31 7 44 20t11 36h-31v71h72v-62q0 -76 -90 -89z" />
    <glyph glyph-name="tcommaaccent" unicode="&#x163;" 
d="M263 -9q-30 0 -56 8t-45.5 25.5t-30.5 44t-11 62.5v334h-74v45h74v163h49v-163h179v-45h-179v-329q0 -55 28.5 -77t73.5 -22q19 0 36 4t39 14v-46q-20 -9 -39.5 -13.5t-43.5 -4.5zM165 -201q31 7 44 20t11 36h-31v71h72v-62q0 -76 -90 -89z" />
    <glyph glyph-name="Tcaron" unicode="&#x164;" horiz-adv-x="648" 
d="M298 652h-244v48h540v-48h-244v-652h-52v652zM347 765h-46l-103 107h54l73 -61l73 61h52z" />
    <glyph glyph-name="tcaron" unicode="&#x165;" 
d="M263 -9q-30 0 -56 8t-45.5 25.5t-30.5 44t-11 62.5v334h-74v45h74v163h49v-163h179v-45h-179v-329q0 -55 28.5 -77t73.5 -22q19 0 36 4t39 14v-46q-20 -9 -39.5 -13.5t-43.5 -4.5zM279 730h61v-3l-49 -146h-29z" />
    <glyph glyph-name="Umacron" unicode="&#x16a;" horiz-adv-x="760" 
d="M380 -11q-63 0 -115.5 19.5t-91 58t-59.5 94.5t-21 130v409h52v-404q0 -125 62.5 -192.5t174.5 -67.5q53 0 96 16t73.5 48t47 80t16.5 111v409h52v-403q0 -75 -21 -132.5t-59 -96.5t-90.5 -59t-116.5 -20zM225 835h310v-49h-310v49z" />
    <glyph glyph-name="umacron" unicode="&#x16b;" horiz-adv-x="613" 
d="M287 -12q-48 0 -86 15.5t-64.5 43.5t-40 66.5t-13.5 84.5v312h49v-303q0 -79 42 -126.5t120 -47.5q37 0 69.5 13.5t56.5 37.5t37.5 57.5t13.5 73.5v295h49v-510h-49v95q-26 -45 -70 -76t-114 -31zM154 668h294v-47h-294v47z" />
    <glyph glyph-name="Ubreve" unicode="&#x16c;" horiz-adv-x="760" 
d="M380 -11q-63 0 -115.5 19.5t-91 58t-59.5 94.5t-21 130v409h52v-404q0 -125 62.5 -192.5t174.5 -67.5q53 0 96 16t73.5 48t47 80t16.5 111v409h52v-403q0 -75 -21 -132.5t-59 -96.5t-90.5 -59t-116.5 -20zM380 758q-56 0 -92.5 26t-40.5 74h44q8 -24 30 -38t59 -14t59 14
t30 38h44q-4 -48 -40.5 -74t-92.5 -26z" />
    <glyph glyph-name="ubreve" unicode="&#x16d;" horiz-adv-x="613" 
d="M287 -12q-48 0 -86 15.5t-64.5 43.5t-40 66.5t-13.5 84.5v312h49v-303q0 -79 42 -126.5t120 -47.5q37 0 69.5 13.5t56.5 37.5t37.5 57.5t13.5 73.5v295h49v-510h-49v95q-26 -45 -70 -76t-114 -31zM301 593q-56 0 -92.5 29.5t-40.5 82.5h39q9 -28 32 -46t62 -18t62 18
t32 46h39q-4 -53 -40.5 -82.5t-92.5 -29.5z" />
    <glyph glyph-name="Uring" unicode="&#x16e;" horiz-adv-x="760" 
d="M380 -11q-63 0 -115.5 19.5t-91 58t-59.5 94.5t-21 130v409h52v-404q0 -125 62.5 -192.5t174.5 -67.5q53 0 96 16t73.5 48t47 80t16.5 111v409h52v-403q0 -75 -21 -132.5t-59 -96.5t-90.5 -59t-116.5 -20zM380 748q-44 0 -75 27t-31 68t31 68t75 27t75 -27t31 -68
t-31 -68t-75 -27zM380 780q29 0 48.5 18t19.5 45t-19.5 45t-48.5 18t-48.5 -18t-19.5 -45t19.5 -45t48.5 -18z" />
    <glyph glyph-name="uring" unicode="&#x16f;" horiz-adv-x="613" 
d="M287 -12q-48 0 -86 15.5t-64.5 43.5t-40 66.5t-13.5 84.5v312h49v-303q0 -79 42 -126.5t120 -47.5q37 0 69.5 13.5t56.5 37.5t37.5 57.5t13.5 73.5v295h49v-510h-49v95q-26 -45 -70 -76t-114 -31zM301 583q-21 0 -40 8t-33.5 21.5t-22.5 31.5t-8 39t8 39t22.5 31.5
t33.5 21.5t40 8t40 -8t33.5 -21.5t22.5 -31.5t8 -39t-8 -39t-22.5 -31.5t-33.5 -21.5t-40 -8zM301 613q29 0 49.5 20.5t20.5 49.5t-20.5 49.5t-49.5 20.5t-49.5 -20.5t-20.5 -49.5t20.5 -49.5t49.5 -20.5z" />
    <glyph glyph-name="Uhungarumlaut" unicode="&#x170;" horiz-adv-x="760" 
d="M380 -11q-63 0 -115.5 19.5t-91 58t-59.5 94.5t-21 130v409h52v-404q0 -125 62.5 -192.5t174.5 -67.5q53 0 96 16t73.5 48t47 80t16.5 111v409h52v-403q0 -75 -21 -132.5t-59 -96.5t-90.5 -59t-116.5 -20zM372 878l59 -28l-107 -90h-45zM512 878l59 -28l-107 -90h-45z
" />
    <glyph glyph-name="uhungarumlaut" unicode="&#x171;" horiz-adv-x="613" 
d="M287 -12q-48 0 -86 15.5t-64.5 43.5t-40 66.5t-13.5 84.5v312h49v-303q0 -79 42 -126.5t120 -47.5q37 0 69.5 13.5t56.5 37.5t37.5 57.5t13.5 73.5v295h49v-510h-49v95q-26 -45 -70 -76t-114 -31zM429 728l55 -29l-101 -104h-43zM293 728l55 -29l-101 -104h-43z" />
    <glyph glyph-name="Uogonek" unicode="&#x172;" horiz-adv-x="760" 
d="M437 -164q-63 2 -94.5 23t-31.5 56q0 21 10 39t30 37q-57 4 -104.5 25.5t-81.5 59.5t-53 92t-19 123v409h52v-404q0 -125 62.5 -192.5t174.5 -67.5q53 0 96 16t73.5 48t47 80t16.5 111v409h52v-403q0 -72 -19 -127.5t-53.5 -94t-83 -60t-106.5 -25.5q-23 -20 -33.5 -35
t-10.5 -34q0 -21 17 -33t59 -16v-36z" />
    <glyph glyph-name="uogonek" unicode="&#x173;" horiz-adv-x="613" 
d="M536 -164q-63 2 -94.5 23t-31.5 56q0 26 15.5 48t45.5 45v87q-26 -45 -70 -76t-114 -31q-48 0 -86 15.5t-64.5 43.5t-40 66.5t-13.5 84.5v312h49v-303q0 -79 42 -126.5t120 -47.5q37 0 69.5 13.5t56.5 37.5t37.5 57.5t13.5 73.5v295h49v-510h-4q-29 -23 -42.5 -40.5
t-13.5 -38.5t17 -33t59 -16v-36z" />
    <glyph glyph-name="Wcircumflex" unicode="&#x174;" horiz-adv-x="1102" 
d="M50 700h58l220 -623l205 625h40l205 -625l220 623h54l-254 -705h-42l-205 608l-205 -608h-42zM528 872h46l103 -107h-54l-73 61l-73 -61h-52z" />
    <glyph glyph-name="wcircumflex" unicode="&#x175;" horiz-adv-x="861" 
d="M49 510h55l154 -448l154 450h39l154 -450l154 448h53l-187 -514h-42l-152 437l-153 -437h-42zM410 717h40l100 -122h-47l-74 68l-74 -68h-45z" />
    <glyph glyph-name="Ycircumflex" unicode="&#x176;" horiz-adv-x="716" 
d="M332 277l-300 423h65l262 -376l263 376h62l-300 -422v-278h-52v277zM335 867h46l103 -107h-54l-73 61l-73 -61h-52z" />
    <glyph glyph-name="ycircumflex" unicode="&#x177;" horiz-adv-x="588" 
d="M492 510h54l-221 -528q-34 -80 -74.5 -112.5t-95.5 -32.5q-29 0 -52 5.5t-49 16.5l17 43q20 -10 39 -14.5t48 -4.5q20 0 37 6t32 20.5t29 37.5t28 56l-245 507h57l212 -456zM278 717h40l100 -122h-47l-74 68l-74 -68h-45z" />
    <glyph glyph-name="Ydieresis" unicode="&#x178;" horiz-adv-x="716" 
d="M332 277l-300 423h65l262 -376l263 376h62l-300 -422v-278h-52v277zM410 836h73v-76h-73v76zM234 836h74v-76h-74v76z" />
    <glyph glyph-name="Zacute" unicode="&#x179;" horiz-adv-x="688" 
d="M68 29l479 624h-462v47h536v-29l-479 -624h479v-47h-553v29zM425 883l59 -28l-107 -90h-45z" />
    <glyph glyph-name="zacute" unicode="&#x17a;" horiz-adv-x="554" 
d="M58 28l368 438h-354v44h427v-28l-368 -438h368v-44h-441v28zM349 728l61 -30l-107 -103h-42z" />
    <glyph glyph-name="Zdotaccent" unicode="&#x17b;" horiz-adv-x="688" 
d="M68 29l479 624h-462v47h536v-29l-479 -624h479v-47h-553v29zM315 841h76v-76h-76v76z" />
    <glyph glyph-name="zdotaccent" unicode="&#x17c;" horiz-adv-x="554" 
d="M58 28l368 438h-354v44h427v-28l-368 -438h368v-44h-441v28zM246 676h72v-81h-72v81z" />
    <glyph glyph-name="Zcaron" unicode="&#x17d;" horiz-adv-x="688" 
d="M68 29l479 624h-462v47h536v-29l-479 -624h479v-47h-553v29zM376 765h-46l-103 107h54l73 -61l73 61h52z" />
    <glyph glyph-name="zcaron" unicode="&#x17e;" horiz-adv-x="554" 
d="M58 28l368 438h-354v44h427v-28l-368 -438h368v-44h-441v28zM302 595h-40l-100 122h47l74 -68l74 68h45z" />
    <glyph glyph-name="florin" unicode="&#x192;" horiz-adv-x="506" 
d="M90 -5q-16 0 -27.5 1t-21.5 3v44q20 -4 46 -4q67 0 82 82l49 263h-109v45h117l26 136q14 75 48.5 107.5t94.5 32.5q24 0 40.5 -2.5t34.5 -7.5v-44q-18 5 -36 7.5t-34 2.5q-42 0 -63.5 -22.5t-31.5 -76.5l-25 -133h155v-45h-163l-50 -266q-12 -63 -43.5 -93t-88.5 -30z
" />
    <glyph glyph-name="Aringacute" unicode="&#x1fa;" horiz-adv-x="790" 
d="M351 666q-28 11 -45 34t-17 53q0 41 31 68t75 27t75 -27t31 -68q0 -30 -17.5 -53t-45.5 -34l308 -666h-57l-89 196h-413l-89 -196h-54zM578 243l-184 405l-185 -405h369zM395 690q29 0 48.5 18t19.5 45t-19.5 45t-48.5 18t-48.5 -18t-19.5 -45t19.5 -45t48.5 -18z
M464 986l57 -28l-105 -80h-45z" />
    <glyph glyph-name="aringacute" unicode="&#x1fb;" horiz-adv-x="574" 
d="M354 938l59 -30l-104 -88h-44zM248 -12q-36 0 -71 10t-63 30t-45.5 50t-17.5 70v2q0 40 16.5 71t45.5 52t70 32t91 11q54 0 93 -6t76 -16v22q0 78 -44.5 117t-123.5 39q-47 0 -86 -11.5t-74 -29.5l-18 43q42 20 85 32t96 12q105 0 161 -56q52 -52 52 -144v-318h-48v85
q-13 -18 -31.5 -35.5t-42.5 -31t-54.5 -22t-66.5 -8.5zM251 34q39 0 74 11.5t61.5 32t42 49.5t15.5 64v58q-32 8 -75 15.5t-98 7.5q-81 0 -124.5 -32.5t-43.5 -86.5v-2q0 -28 12 -49.5t32.5 -36.5t47.5 -23t56 -8zM287 593q-21 0 -40 8t-33.5 21.5t-22.5 31.5t-8 39t8 39
t22.5 31.5t33.5 21.5t40 8t40 -8t33.5 -21.5t22.5 -31.5t8 -39t-8 -39t-22.5 -31.5t-33.5 -21.5t-40 -8zM287 623q29 0 49.5 20.5t20.5 49.5t-20.5 49.5t-49.5 20.5t-49.5 -20.5t-20.5 -49.5t20.5 -49.5t49.5 -20.5z" />
    <glyph glyph-name="AEacute" unicode="&#x1fc;" horiz-adv-x="1045" 
d="M444 700h533v-48h-431v-275h386v-48h-386v-281h436v-48h-488v196h-300l-118 -196h-56zM494 243v410h-26l-246 -410h272zM706 883l59 -28l-107 -90h-45z" />
    <glyph glyph-name="aeacute" unicode="&#x1fd;" horiz-adv-x="954" 
d="M243 -12q-35 0 -69.5 10t-61.5 30t-44 50t-17 70v2q0 40 16 71t45 52t69 32t88 11q50 0 86.5 -6t73.5 -16v22q0 78 -42 117t-119 39q-45 0 -81.5 -11.5t-71.5 -29.5l-18 43q43 20 83 32t91 12q76 0 126 -32t67 -96q30 60 84 96t122 36q54 0 97 -20.5t73.5 -56.5t47 -84.5
t16.5 -105.5v-10.5t-1 -9.5h-423q3 -48 21 -85t45 -63t61.5 -39.5t72.5 -13.5q60 0 101.5 23t73.5 57l34 -30q-39 -42 -88.5 -69t-122.5 -27q-63 0 -117.5 29.5t-88.5 82.5q-40 -46 -96.5 -79t-132.5 -33zM851 279q-3 39 -15.5 74.5t-35 63t-55.5 44t-77 16.5q-38 0 -71 -15
t-57.5 -41.5t-40.5 -63t-19 -78.5h371zM246 34q66 0 116.5 30.5t87.5 76.5q-10 25 -15.5 52t-6.5 57q-32 8 -72.5 15t-89.5 7q-79 0 -121 -32.5t-42 -86.5v-2q0 -28 11.5 -49.5t31 -36.5t45.5 -23t55 -8zM544 728l61 -30l-107 -103h-42z" />
    <glyph glyph-name="Oslashacute" unicode="&#x1fe;" horiz-adv-x="850" 
d="M785 705l-100 -107q45 -49 68.5 -112.5t23.5 -133.5v-2q0 -72 -25.5 -137.5t-71.5 -115.5t-111.5 -79.5t-144.5 -29.5q-69 0 -126 22t-102 60l-71 -75h-60l99 106q-44 50 -67.5 113.5t-23.5 133.5v2q0 72 25.5 137.5t71.5 115.5t111 79.5t145 29.5q69 0 126 -22.5
t102 -60.5l71 76h60zM426 34q65 0 120 24.5t94.5 67t61.5 100t22 122.5q0 62 -20 116t-55 97l-420 -452q38 -35 88 -55t109 -20zM126 352q0 -62 19.5 -116.5t54.5 -96.5l421 452q-39 35 -89 55t-108 20q-65 0 -120 -24.5t-94.5 -67t-61.5 -100t-22 -122.5zM497 893l59 -28
l-107 -90h-45z" />
    <glyph glyph-name="oslashacute" unicode="&#x1ff;" horiz-adv-x="640" 
d="M597 517l-80 -84q31 -35 48 -80t17 -96v-2q0 -54 -19.5 -102t-55 -85t-83.5 -58.5t-105 -21.5q-49 0 -91.5 16t-75.5 44l-52 -53h-57l79 82q-30 36 -47 80.5t-17 95.5v2q0 54 19.5 102t55 85t83.5 58.5t105 21.5q49 0 91.5 -16t75.5 -45l52 56h57zM321 33q46 0 84 17.5
t66 47.5t43.5 70t15.5 85q0 42 -13 78.5t-36 65.5l-297 -312q27 -25 62 -38.5t75 -13.5zM110 257q0 -42 12 -78.5t35 -65.5l299 311q-27 25 -62 39t-75 14q-46 0 -84.5 -17.5t-66 -47.5t-43 -70t-15.5 -85zM387 728l61 -30l-107 -103h-42z" />
    <glyph glyph-name="Scommaaccent" unicode="&#x218;" horiz-adv-x="640" 
d="M341 -10q-84 0 -151.5 28t-130.5 84l34 39q29 -27 57.5 -46.5t58.5 -32t63 -19t72 -6.5t72 10.5t56 29t36 44t13 55.5v2q0 28 -8.5 50t-31 40t-60.5 32.5t-98 26.5q-63 13 -108 30.5t-73.5 41t-41.5 54.5t-13 71v2q0 39 17 72.5t47 58.5t71 39t90 14q76 0 131.5 -21
t108.5 -64l-33 -41q-50 43 -100.5 61t-108.5 18q-39 0 -70.5 -10.5t-54 -28.5t-34.5 -42t-12 -51v-2q0 -28 8.5 -50.5t31 -41t62.5 -33.5t102 -28q122 -25 176 -70.5t54 -122.5v-2q0 -42 -17.5 -77.5t-48 -60.5t-73 -39t-93.5 -14zM267 -201q31 7 44 20t11 36h-31v71h72v-62
q0 -76 -90 -89z" />
    <glyph glyph-name="scommaaccent" unicode="&#x219;" horiz-adv-x="497" 
d="M258 -10q-56 0 -112 20.5t-97 53.5l29 39q42 -32 88 -49.5t95 -17.5q52 0 87.5 26t35.5 71v2q0 22 -11 38t-30 28t-43 20t-51 16q-31 9 -62.5 19t-56.5 25.5t-40.5 38.5t-15.5 57v2q0 31 12.5 56.5t34.5 44.5t53 29.5t68 10.5q46 0 94.5 -15t86.5 -41l-26 -41
q-35 23 -75.5 37t-81.5 14q-53 0 -84.5 -25.5t-31.5 -63.5v-2q0 -21 12 -36.5t31.5 -26.5t45.5 -19.5t53 -16.5q31 -9 61 -19.5t54 -27t38.5 -39.5t14.5 -57v-2q0 -34 -13.5 -61.5t-37.5 -47t-56 -30t-69 -10.5zM191 -201q31 7 44 20t11 36h-31v71h72v-62q0 -76 -90 -89z
" />
    <glyph glyph-name="schwa" unicode="&#x259;" horiz-adv-x="584" 
d="M276 522q50 0 95.5 -19t80 -54t54.5 -84t20 -109v-2q0 -56 -18.5 -104.5t-51 -84.5t-76.5 -56.5t-96 -20.5q-54 0 -97 20.5t-73.5 56.5t-47 84.5t-16.5 105.5v10.5t1 9.5h423q-3 48 -21 85t-45 63t-62 39.5t-72 13.5q-60 0 -101.5 -23t-73.5 -57l-34 30q19 21 41 38.5
t47.5 30.5t55.5 20t67 7zM103 231q3 -39 15.5 -74.5t35 -63t55.5 -44t77 -16.5q38 0 71 15t57.5 41.5t40.5 63t19 78.5h-371z" />
    <glyph glyph-name="circumflex" unicode="&#x2c6;" horiz-adv-x="500" 
d="M230 717h40l100 -122h-47l-74 68l-74 -68h-45z" />
    <glyph glyph-name="caron" unicode="&#x2c7;" horiz-adv-x="500" 
d="M270 595h-40l-100 122h47l74 -68l74 68h45z" />
    <glyph glyph-name="breve" unicode="&#x2d8;" horiz-adv-x="500" 
d="M250 593q-56 0 -92.5 29.5t-40.5 82.5h39q9 -28 32 -46t62 -18t62 18t32 46h39q-4 -53 -40.5 -82.5t-92.5 -29.5z" />
    <glyph glyph-name="dotaccent" unicode="&#x2d9;" horiz-adv-x="500" 
d="M214 676h72v-81h-72v81z" />
    <glyph glyph-name="ring" unicode="&#x2da;" horiz-adv-x="500" 
d="M250 593q-21 0 -40 8t-33.5 21.5t-22.5 31.5t-8 39t8 39t22.5 31.5t33.5 21.5t40 8t40 -8t33.5 -21.5t22.5 -31.5t8 -39t-8 -39t-22.5 -31.5t-33.5 -21.5t-40 -8zM250 623q29 0 49.5 20.5t20.5 49.5t-20.5 49.5t-49.5 20.5t-49.5 -20.5t-20.5 -49.5t20.5 -49.5
t49.5 -20.5z" />
    <glyph glyph-name="ogonek" unicode="&#x2db;" horiz-adv-x="500" 
d="M321 -164q-63 2 -94.5 23t-31.5 56q0 29 19 52.5t54 50.5l35 -17q-30 -24 -44 -41.5t-14 -38.5t17 -33t59 -16v-36z" />
    <glyph glyph-name="tilde" unicode="&#x2dc;" horiz-adv-x="500" 
d="M314 595q-14 0 -30 6t-35 14q-17 8 -33.5 14.5t-29.5 6.5q-18 0 -28.5 -10.5t-21.5 -39.5l-34 9q14 54 34 73.5t50 19.5q14 0 30 -6t35 -14q17 -8 33.5 -14.5t29.5 -6.5q18 0 28.5 10.5t21.5 39.5l34 -9q-14 -54 -34 -73.5t-50 -19.5z" />
    <glyph glyph-name="hungarumlaut" unicode="&#x2dd;" horiz-adv-x="500" 
d="M335 728l55 -29l-101 -104h-43zM199 728l55 -29l-101 -104h-43z" />
    <glyph glyph-name="commaaccent" unicode="&#x326;" horiz-adv-x="500" 
d="M190 -201q31 7 44 20t11 36h-31v71h72v-62q0 -76 -90 -89z" />
    <glyph glyph-name="baht" unicode="&#xe3f;" horiz-adv-x="630" 
d="M401 779l-15 -84q72 -14 115 -58t43 -110q0 -38 -11 -66t-29 -48t-41 -33.5t-47 -21.5q33 -8 62 -21.5t50 -34t33.5 -48.5t12.5 -64q0 -44 -17.5 -79.5t-49 -60t-75.5 -37.5t-98 -13h-70l-21 -118h-46l21 118h-118v700h241l14 79h46zM320 332l-51 -287h66q88 0 139 37.5
t51 105.5q0 70 -51 107t-148 37h-6zM286 374l49 281h-186v-281h137zM495 521q0 52 -31.5 85.5t-88.5 44.5l-48 -277q77 2 122.5 40t45.5 107zM228 45l51 287h-130v-287h79z" />
    <glyph glyph-name="Wgrave" unicode="&#x1e80;" horiz-adv-x="1102" 
d="M50 700h58l220 -623l205 625h40l205 -625l220 623h54l-254 -705h-42l-205 608l-205 -608h-42zM527 765l-107 90l59 28l93 -118h-45z" />
    <glyph glyph-name="wgrave" unicode="&#x1e81;" horiz-adv-x="861" 
d="M49 510h55l154 -448l154 450h39l154 -450l154 448h53l-187 -514h-42l-152 437l-153 -437h-42zM302 698l61 30l88 -133h-42z" />
    <glyph glyph-name="Wacute" unicode="&#x1e82;" horiz-adv-x="1102" 
d="M50 700h58l220 -623l205 625h40l205 -625l220 623h54l-254 -705h-42l-205 608l-205 -608h-42zM623 883l59 -28l-107 -90h-45z" />
    <glyph glyph-name="wacute" unicode="&#x1e83;" horiz-adv-x="861" 
d="M49 510h55l154 -448l154 450h39l154 -450l154 448h53l-187 -514h-42l-152 437l-153 -437h-42zM497 728l61 -30l-107 -103h-42z" />
    <glyph glyph-name="Wdieresis" unicode="&#x1e84;" horiz-adv-x="1102" 
d="M50 700h58l220 -623l205 625h40l205 -625l220 623h54l-254 -705h-42l-205 608l-205 -608h-42zM603 841h73v-76h-73v76zM427 841h74v-76h-74v76z" />
    <glyph glyph-name="wdieresis" unicode="&#x1e85;" horiz-adv-x="861" 
d="M49 510h55l154 -448l154 450h39l154 -450l154 448h53l-187 -514h-42l-152 437l-153 -437h-42zM477 675h69v-80h-69v80zM314 675h69v-80h-69v80z" />
    <glyph glyph-name="Ygrave" unicode="&#x1ef2;" horiz-adv-x="716" 
d="M332 277l-300 423h65l262 -376l263 376h62l-300 -422v-278h-52v277zM334 760l-107 90l59 28l93 -118h-45z" />
    <glyph glyph-name="ygrave" unicode="&#x1ef3;" horiz-adv-x="588" 
d="M492 510h54l-221 -528q-34 -80 -74.5 -112.5t-95.5 -32.5q-29 0 -52 5.5t-49 16.5l17 43q20 -10 39 -14.5t48 -4.5q20 0 37 6t32 20.5t29 37.5t28 56l-245 507h57l212 -456zM170 698l61 30l88 -133h-42z" />
    <glyph glyph-name="enspace" unicode="&#x2002;" horiz-adv-x="500" 
 />
    <glyph glyph-name="emspace" unicode="&#x2003;" horiz-adv-x="1000" 
 />
    <glyph glyph-name="threeperemspace" unicode="&#x2004;" horiz-adv-x="333" 
 />
    <glyph glyph-name="fourperemspace" unicode="&#x2005;" horiz-adv-x="250" 
 />
    <glyph glyph-name="figurespace" unicode="&#x2007;" horiz-adv-x="600" 
 />
    <glyph glyph-name="thinspace" unicode="&#x2009;" horiz-adv-x="133" 
 />
    <glyph glyph-name="hairspace" unicode="&#x200a;" horiz-adv-x="75" 
 />
    <glyph glyph-name="endash" unicode="&#x2013;" horiz-adv-x="528" 
d="M70 323h388v-52h-388v52z" />
    <glyph glyph-name="emdash" unicode="&#x2014;" horiz-adv-x="898" 
d="M70 323h758v-52h-758v52z" />
    <glyph glyph-name="quoteleft" unicode="&#x2018;" horiz-adv-x="230" 
d="M77 587q0 47 19 74t64 44l12 -25q-32 -17 -45 -35t-11 -47h27v-85h-66v74z" />
    <glyph glyph-name="quoteright" unicode="&#x2019;" horiz-adv-x="230" 
d="M58 533q32 17 45 35t11 47h-27v85h66v-74q0 -47 -19 -74t-64 -44z" />
    <glyph glyph-name="quotesinglbase" unicode="&#x201a;" horiz-adv-x="230" 
d="M53 -82q32 17 45 35t11 47h-27v85h66v-74q0 -47 -19 -74t-64 -44z" />
    <glyph glyph-name="quotedblleft" unicode="&#x201c;" horiz-adv-x="410" 
d="M257 587q0 47 19 74t64 44l12 -25q-32 -17 -45 -35t-11 -47h27v-85h-66v74zM77 587q0 47 19 74t64 44l12 -25q-32 -17 -45 -35t-11 -47h27v-85h-66v74z" />
    <glyph glyph-name="quotedblright" unicode="&#x201d;" horiz-adv-x="410" 
d="M238 533q32 17 45 35t11 47h-27v85h66v-74q0 -47 -19 -74t-64 -44zM58 533q32 17 45 35t11 47h-27v85h66v-74q0 -47 -19 -74t-64 -44z" />
    <glyph glyph-name="quotedblbase" unicode="&#x201e;" horiz-adv-x="410" 
d="M233 -82q32 17 45 35t11 47h-27v85h66v-74q0 -47 -19 -74t-64 -44zM53 -82q32 17 45 35t11 47h-27v85h66v-74q0 -47 -19 -74t-64 -44z" />
    <glyph glyph-name="dagger" unicode="&#x2020;" horiz-adv-x="410" 
d="M188 524l-125 -7v45l124 -7l-7 145h50l-7 -145l124 7v-45l-125 7l5 -286h-44z" />
    <glyph glyph-name="daggerdbl" unicode="&#x2021;" horiz-adv-x="430" 
d="M197 145l-124 -7v45l125 -7l-5 174l5 174l-125 -7v45l124 -7l-7 145h50l-7 -145l124 7v-45l-125 7l5 -174l-5 -174l125 7v-45l-124 7l7 -145h-50z" />
    <glyph glyph-name="bullet" unicode="&#x2022;" horiz-adv-x="470" 
d="M235 228q-26 0 -48.5 9.5t-39 26.5t-26.5 39t-10 48v2q0 25 10 47.5t27.5 39.5t40 26.5t46.5 9.5t46.5 -9.5t39.5 -26.5t27.5 -39.5t10.5 -47.5v-2q0 -26 -10 -48t-26.5 -39t-39.5 -26.5t-48 -9.5z" />
    <glyph glyph-name="ellipsis" unicode="&#x2026;" horiz-adv-x="680" 
d="M534 83h64v-83h-64v83zM308 83h64v-83h-64v83zM82 83h64v-83h-64v83z" />
    <glyph glyph-name="perthousand" unicode="&#x2030;" horiz-adv-x="1200" 
d="M210 393q22 0 40.5 10.5t32 28.5t21 42.5t7.5 52.5v2q0 29 -8 54t-22.5 43t-33 28.5t-39.5 10.5q-22 0 -40.5 -10.5t-32 -29t-21 -43t-7.5 -51.5v-2q0 -30 8 -55t22.5 -43t33 -28t39.5 -10zM208 350q-35 0 -63 14.5t-48 39t-31 56.5t-11 67v2q0 35 11 67.5t31.5 57
t49 39.5t63.5 15q34 0 62.5 -14.5t48.5 -39.5t31 -57t11 -66v-2q0 -35 -11 -67.5t-31.5 -57.5t-49 -39.5t-63.5 -14.5zM429 337l-247 -337h-54l265 360l249 340h54zM616 35q22 0 40.5 10.5t32 28.5t21 42.5t7.5 52.5v2q0 29 -8 54t-22.5 43t-33 28.5t-39.5 10.5
q-22 0 -40.5 -10.5t-32 -29t-21 -43t-7.5 -51.5v-2q0 -30 8 -55t22.5 -43t33 -28t39.5 -10zM614 -8q-35 0 -63 14.5t-48 39t-31 56.5t-11 67v2q0 35 11 67.5t31.5 57t49 39.5t63.5 15q34 0 62.5 -14.5t48.5 -39.5t31 -57t11 -66v-2q0 -35 -11 -67.5t-31.5 -57.5t-49 -39.5
t-63.5 -14.5zM992 35q22 0 40.5 10.5t32 28.5t21 42.5t7.5 52.5v2q0 29 -8 54t-22.5 43t-33 28.5t-39.5 10.5q-22 0 -40.5 -10.5t-32 -29t-21 -43t-7.5 -51.5v-2q0 -30 8 -55t22.5 -43t33 -28t39.5 -10zM990 -8q-35 0 -63 14.5t-48 39t-31 56.5t-11 67v2q0 35 11 67.5
t31.5 57t49 39.5t63.5 15q34 0 62.5 -14.5t48.5 -39.5t31 -57t11 -66v-2q0 -35 -11 -67.5t-31.5 -57.5t-49 -39.5t-63.5 -14.5z" />
    <glyph glyph-name="guilsinglleft" unicode="&#x2039;" horiz-adv-x="311" 
d="M51 251v8l160 209l37 -24l-137 -188l137 -190l-37 -24z" />
    <glyph glyph-name="guilsinglright" unicode="&#x203a;" horiz-adv-x="311" 
d="M63 66l137 188l-137 190l37 24l160 -209v-8l-160 -209z" />
    <glyph glyph-name="fraction" unicode="&#x2044;" horiz-adv-x="100" 
d="M36 356l231 344h43l-246 -356l-231 -344h-43z" />
    <glyph glyph-name="zero.sup" unicode="&#x2070;" 
d="M199 416q-32 0 -58 15t-44 42t-27.5 64t-9.5 80v2q0 43 10 80t28 64.5t44 43t58 15.5t58 -15t44 -42t28 -64t10 -80v-2q0 -43 -10 -80t-28.5 -64.5t-44.5 -43t-58 -15.5zM199 787q-24 0 -42.5 -13t-31.5 -35.5t-19.5 -53t-6.5 -65.5v-2q0 -35 7 -65.5t19.5 -53
t31.5 -35.5t43 -13t43 13t31.5 35.5t19.5 53t7 65.5v2q0 35 -7 65.5t-20 53t-32 35.5t-43 13z" />
    <glyph glyph-name="four.sup" unicode="&#x2074;" 
d="M295 424h-37v91h-190l-12 32l194 271h45v-269h55v-34h-55v-91zM258 768l-158 -219h158v219z" />
    <glyph glyph-name="five.sup" unicode="&#x2075;" 
d="M197 416q-42 0 -77.5 19t-61.5 49l28 26q51 -59 112 -59q46 0 73 26t27 63q0 39 -28 61t-71 22q-25 0 -47 -6t-43 -16l-27 16l13 195h225v-39h-192l-9 -130q19 8 39 12.5t44 4.5q28 0 53 -8t43.5 -23.5t29 -37t10.5 -48.5q0 -28 -11 -51.5t-30 -40t-45 -26t-55 -9.5z" />
    <glyph glyph-name="six.sup" unicode="&#x2076;" 
d="M198 417q-29 0 -53 10t-41 27q-20 20 -33 53.5t-13 96.5v2q0 48 11.5 87.5t32 68t48.5 44.5t62 16q37 0 61.5 -12.5t47.5 -35.5l-25 -27q-18 18 -38.5 29t-47.5 11q-23 0 -43.5 -13t-36.5 -35.5t-25 -54t-9 -68.5q17 23 42 39t67 16q25 0 48 -8.5t40 -25t27 -39.5t10 -51
q0 -27 -10 -51t-28 -41.5t-42 -27.5t-52 -10zM197 452q42 0 68.5 25.5t26.5 67.5t-24.5 66.5t-66.5 24.5t-69.5 -26t-27.5 -65q0 -41 27.5 -67t65.5 -26z" />
    <glyph glyph-name="seven.sup" unicode="&#x2077;" 
d="M114 424l176 349h-220v39h265v-29l-176 -359h-45z" />
    <glyph glyph-name="eight.sup" unicode="&#x2078;" 
d="M200 416q-61 0 -100.5 31t-39.5 81q0 35 21.5 59t53.5 38q-26 12 -44.5 34.5t-18.5 55.5q0 24 10.5 43.5t28.5 34t41.5 22t49.5 7.5q25 0 48 -8t41 -22t28.5 -33.5t10.5 -43.5q0 -33 -18 -55t-45 -35q32 -12 53.5 -37t21.5 -58q0 -26 -10.5 -47t-29.5 -36t-45 -23t-57 -8
zM201 787q-40 0 -65.5 -20t-25.5 -52t25.5 -53.5t65.5 -21.5t65.5 21.5t25.5 53.5t-25.5 52t-65.5 20zM201 608q-47 0 -75 -23t-28 -57t28 -55.5t75 -21.5t75 21.5t28 55.5t-28 57t-75 23z" />
    <glyph glyph-name="nine.sup" unicode="&#x2079;" 
d="M202 821q29 0 53 -10t41 -27q20 -20 33 -53.5t13 -96.5v-2q0 -49 -11.5 -89t-32 -68t-48.5 -43.5t-62 -15.5q-37 0 -64 13t-50 37l25 27q20 -20 40 -31t51 -11q23 0 43.5 12t36.5 34t25 53t9 68q-17 -23 -42 -39t-67 -16q-26 0 -48.5 8.5t-39.5 25t-27 40t-10 52.5
q0 28 10 52t28 42t42 28t52 10zM199 598q42 0 69.5 26t27.5 67q0 21 -7.5 38.5t-20.5 30t-29.5 19.5t-35.5 7q-42 0 -68.5 -26t-26.5 -69t24.5 -68t66.5 -25z" />
    <glyph glyph-name="zero.inf" unicode="&#x2080;" 
d="M199 -142q-32 0 -58 15t-44 42t-27.5 64t-9.5 80v2q0 43 10 80t28 64.5t44 43t58 15.5t58 -15t44 -42t28 -64t10 -80v-2q0 -43 -10 -80t-28.5 -64.5t-44.5 -43t-58 -15.5zM199 229q-24 0 -42.5 -13t-31.5 -35.5t-19.5 -53t-6.5 -65.5v-2q0 -35 7 -65.5t19.5 -53
t31.5 -35.5t43 -13t43 13t31.5 35.5t19.5 53t7 65.5v2q0 35 -7 65.5t-20 53t-32 35.5t-43 13z" />
    <glyph glyph-name="one.inf" unicode="&#x2081;" horiz-adv-x="325" 
d="M165 -132v352l-90 -34l-9 35l105 40h33v-393h-39z" />
    <glyph glyph-name="two.inf" unicode="&#x2082;" 
d="M61 -99l149 132q42 36 61 63t19 58q0 32 -23.5 53.5t-58.5 21.5q-34 0 -60.5 -18t-49.5 -54l-30 18q25 40 58.5 64.5t84.5 24.5q25 0 47 -8.5t38 -23t25 -34.5t9 -42q0 -41 -23 -72.5t-70 -72.5l-122 -106h219v-37h-273v33z" />
    <glyph glyph-name="three.inf" unicode="&#x2083;" 
d="M198 -142q-48 0 -83.5 20.5t-59.5 53.5l29 24q46 -63 115 -63q37 0 63 22.5t26 58.5q0 38 -32 59t-80 21h-28l-8 24l133 139h-198v37h248v-32l-128 -134q28 -2 52 -10t42 -22t28.5 -34.5t10.5 -47.5q0 -26 -10.5 -47.5t-28.5 -36.5t-41.5 -23.5t-49.5 -8.5z" />
    <glyph glyph-name="four.inf" unicode="&#x2084;" 
d="M295 -134h-37v91h-190l-12 32l194 271h45v-269h55v-34h-55v-91zM258 210l-158 -219h158v219z" />
    <glyph glyph-name="five.inf" unicode="&#x2085;" 
d="M197 -142q-42 0 -77.5 19t-61.5 49l28 26q51 -59 112 -59q46 0 73 26t27 63q0 39 -28 61t-71 22q-25 0 -47 -6t-43 -16l-27 16l13 195h225v-39h-192l-9 -130q19 8 39 12.5t44 4.5q28 0 53 -8t43.5 -23.5t29 -37t10.5 -48.5q0 -28 -11 -51.5t-30 -40t-45 -26t-55 -9.5z
" />
    <glyph glyph-name="six.inf" unicode="&#x2086;" 
d="M198 -141q-29 0 -53 10t-41 27q-20 20 -33 53.5t-13 96.5v2q0 48 11.5 87.5t32 68t48.5 44.5t62 16q37 0 61.5 -12.5t47.5 -35.5l-25 -27q-18 18 -38.5 29t-47.5 11q-23 0 -43.5 -13t-36.5 -35.5t-25 -54t-9 -68.5q17 23 42 39t67 16q25 0 48 -8.5t40 -25t27 -39.5
t10 -51q0 -27 -10 -51t-28 -41.5t-42 -27.5t-52 -10zM197 -106q42 0 68.5 25.5t26.5 67.5t-24.5 66.5t-66.5 24.5t-69.5 -26t-27.5 -65q0 -41 27.5 -67t65.5 -26z" />
    <glyph glyph-name="seven.inf" unicode="&#x2087;" 
d="M114 -134l176 349h-220v39h265v-29l-176 -359h-45z" />
    <glyph glyph-name="eight.inf" unicode="&#x2088;" 
d="M200 -142q-61 0 -100.5 31t-39.5 81q0 35 21.5 59t53.5 38q-26 12 -44.5 34.5t-18.5 55.5q0 24 10.5 43.5t28.5 34t41.5 22t49.5 7.5q25 0 48 -8t41 -22t28.5 -33.5t10.5 -43.5q0 -33 -18 -55t-45 -35q32 -12 53.5 -37t21.5 -58q0 -26 -10.5 -47t-29.5 -36t-45 -23
t-57 -8zM201 229q-40 0 -65.5 -20t-25.5 -52t25.5 -53.5t65.5 -21.5t65.5 21.5t25.5 53.5t-25.5 52t-65.5 20zM201 50q-47 0 -75 -23t-28 -57t28 -55.5t75 -21.5t75 21.5t28 55.5t-28 57t-75 23z" />
    <glyph glyph-name="nine.inf" unicode="&#x2089;" 
d="M202 263q29 0 53 -10t41 -27q20 -20 33 -53.5t13 -96.5v-2q0 -49 -11.5 -89t-32 -68t-48.5 -43.5t-62 -15.5q-37 0 -64 13t-50 37l25 27q20 -20 40 -31t51 -11q23 0 43.5 12t36.5 34t25 53t9 68q-17 -23 -42 -39t-67 -16q-26 0 -48.5 8.5t-39.5 25t-27 40t-10 52.5
q0 28 10 52t28 42t42 28t52 10zM199 40q42 0 69.5 26t27.5 67q0 21 -7.5 38.5t-20.5 30t-29.5 19.5t-35.5 7q-42 0 -68.5 -26t-26.5 -69t24.5 -68t66.5 -25z" />
    <glyph glyph-name="colonmonetary" unicode="&#x20a1;" horiz-adv-x="600" 
d="M519 779l-21 -118q14 -8 27 -18t26 -21l-29 -36q-9 8 -17.5 15t-17.5 13l-100 -571q41 6 74 25t67 51l28 -33q-36 -34 -78 -57.5t-96 -29.5l-21 -117h-44l20 116q-53 2 -97 19l-24 -135h-44l27 156q-66 42 -105 121t-39 187v7q0 73 19.5 134.5t54.5 106.5t83 73t104 34
l14 78h44l-14 -76q56 -3 98 -21l17 97h44zM104 347q0 -89 29 -155t78 -105l99 570q-44 -8 -82 -32t-65.5 -63t-43 -91.5t-15.5 -116.5v-7zM246 65q46 -25 102 -25l104 596q-44 23 -102 24z" />
    <glyph glyph-name="naira" unicode="&#x20a6;" horiz-adv-x="820" 
d="M671 238v-238h-69l-148 238h-257v-238h-48v238h-98v42h98v144h-98v42h98v234h75l145 -234h254v234h48v-234h98v-42h-98v-144h98v-42h-98zM197 280h234l-90 144h-144v-144zM482 280h141v144h-231zM197 464h119l-119 190v-190zM623 55v185h-116z" />
    <glyph glyph-name="rupee" unicode="&#x20a8;" horiz-adv-x="1070" 
d="M85 700h232q55 0 99 -15t75 -42t47.5 -64t16.5 -82v-2q0 -42 -13.5 -75.5t-37.5 -59t-56.5 -43t-69.5 -25.5l203 -292h-62l-196 284h-189v-284h-49v700zM312 328q42 0 77.5 11.5t61 32.5t40 51.5t14.5 69.5v2q0 75 -50.5 117t-140.5 42h-180v-326h178zM839 -10
q-55 0 -106.5 20t-90.5 52l29 38q41 -32 81 -48.5t90 -16.5q25 0 47.5 6.5t39 19t26 30t9.5 39.5v2q0 17 -6 30.5t-21 25.5t-39.5 23.5t-61.5 23.5q-90 28 -130 61t-40 87v2q0 30 12.5 55t34.5 43t51.5 28t64.5 10q49 0 93 -16t80 -41l-25 -41q-34 23 -71 38t-79 15
q-51 0 -81.5 -25.5t-30.5 -63.5v-2q0 -17 7 -31t23 -26t42 -23.5t64 -23.5q88 -27 125 -60t37 -87v-2q0 -33 -14 -59t-37.5 -44.5t-55 -28.5t-67.5 -10z" />
    <glyph glyph-name="won" unicode="&#x20a9;" horiz-adv-x="1100" 
d="M942 466h115v-41h-127l-42 -146h169v-41h-181l-70 -241h-60l-73 241h-246l-73 -241h-60l-70 241h-181v41h169l-42 146h-127v41h115l-68 234h56l65 -234h238l70 236h66l68 -236h239l66 234h52zM440 279h220l-43 146h-135zM261 279h134l42 146h-215zM708 279h133l39 146
h-214zM329 44l55 194h-112l53 -194h4zM779 44l51 194h-111l56 -194h4zM494 466h111l-53 182h-4z" />
    <glyph glyph-name="sheqel" unicode="&#x20aa;" horiz-adv-x="620" 
d="M204 349h46l33 -199q8 -53 34.5 -79t79.5 -26h98v465h47v-510h-146q-72 0 -109.5 34.5t-48.5 104.5zM355 358q0 58 -28 82.5t-86 24.5h-116v-465h-47v510h164q80 0 119 -34.5t39 -115.5v-189h-45v187z" />
    <glyph glyph-name="Euro" unicode="&#x20ac;" horiz-adv-x="720" 
d="M621 545q-20 29 -41 51.5t-45 38t-52 23.5t-64 8q-38 0 -71.5 -15t-61.5 -42t-48.5 -64t-32.5 -81h283v-48h-294q-2 -16 -3 -32t-1 -33q0 -31 3 -58h295v-48h-287q12 -47 33.5 -86t51 -67t66.5 -43t79 -15q65 0 111 35.5t83 92.5l38 -25q-20 -31 -44 -58t-52.5 -47.5
t-62.5 -32t-76 -11.5q-52 0 -97 18.5t-81.5 52.5t-62 81.5t-38.5 104.5h-90v48h82q-2 14 -2 27.5v28.5q0 17 1 33.5t3 33.5h-84v48h94q13 53 38.5 98.5t60.5 78.5t78 52t91 19q44 0 79.5 -10.5t64.5 -29.5t52.5 -44.5t43.5 -55.5z" />
    <glyph glyph-name="peso" unicode="&#x20b1;" horiz-adv-x="710" 
d="M136 457h-97v43h97v200h187q55 0 101.5 -13.5t80.5 -39t54 -63t23 -84.5h99v-43h-99q-3 -51 -26.5 -89.5t-60.5 -64.5t-85 -39t-100 -13h-122v-251h-52v457zM313 298q47 0 86 11t67.5 32t45 50.5t19.5 66.5h-344v-160h126zM187 499h344q-6 76 -63.5 115t-148.5 39h-132
v-154z" />
    <glyph glyph-name="published" unicode="&#x2117;" horiz-adv-x="830" 
d="M414 -12q-76 0 -142 28.5t-114.5 77.5t-76.5 114.5t-28 139.5v2q0 74 28 139.5t77 115t115.5 78.5t142.5 29t142 -28.5t114.5 -77.5t76.5 -114.5t28 -139.5v-2q0 -74 -28 -139.5t-77 -115t-115.5 -78.5t-142.5 -29zM414 16q71 0 132 26.5t105.5 72t70 106t25.5 129.5v2
q0 69 -25 129.5t-69.5 105.5t-105 71t-131.5 26t-132 -26.5t-105.5 -72t-70 -106t-25.5 -129.5v-2q0 -69 25 -129.5t69.5 -105.5t105 -71t131.5 -26zM296 541h141q65 0 104 -29.5t39 -85.5v-2q0 -31 -12.5 -53.5t-33 -37.5t-47.5 -22.5t-57 -7.5h-90v-128h-44v366zM431 344
q48 0 76 20t28 58v2q0 39 -27 57.5t-74 18.5h-94v-156h91z" />
    <glyph glyph-name="servicemark" unicode="&#x2120;" horiz-adv-x="708" 
d="M351 700h37l120 -183l120 183h36v-308h-35v246l-119 -178h-5l-119 178v-246h-35v308zM164 387q-74 0 -130 50l22 26q24 -22 50.5 -33t58.5 -11t52 15.5t20 39.5q0 22 -17.5 34.5t-65.5 23.5q-54 11 -80 30.5t-26 57.5q0 37 30.5 61t76.5 24q62 0 110 -38l-21 -26
q-41 32 -90 32q-32 0 -51 -14.5t-19 -36.5q0 -21 16.5 -34.5t68.5 -24.5q51 -11 77.5 -31t26.5 -56q0 -41 -32 -65t-77 -24z" />
    <glyph glyph-name="trademark" unicode="&#x2122;" horiz-adv-x="690" 
d="M333 700h37l120 -183l120 183h36v-308h-35v246l-119 -178h-5l-119 178v-246h-35v308zM127 666h-101v34h237v-34h-101v-274h-35v274z" />
    <glyph glyph-name="onethird" unicode="&#x2153;" horiz-adv-x="825" 
d="M633 -10q-48 0 -83.5 20.5t-59.5 53.5l29 24q46 -63 115 -63q37 0 63 22.5t26 58.5q0 38 -32 59t-80 21h-28l-8 24l133 139h-198v37h248v-32l-128 -134q28 -2 52 -10t42 -22t28.5 -34.5t10.5 -47.5q0 -26 -10.5 -47.5t-28.5 -36.5t-41.5 -23.5t-49.5 -8.5zM363 356
l231 344h43l-246 -356l-231 -344h-43zM160 314v352l-90 -34l-9 35l105 40h33v-393h-39z" />
    <glyph glyph-name="twothirds" unicode="&#x2154;" horiz-adv-x="900" 
d="M708 -10q-48 0 -83.5 20.5t-59.5 53.5l29 24q46 -63 115 -63q37 0 63 22.5t26 58.5q0 38 -32 59t-80 21h-28l-8 24l133 139h-198v37h248v-32l-128 -134q28 -2 52 -10t42 -22t28.5 -34.5t10.5 -47.5q0 -26 -10.5 -47.5t-28.5 -36.5t-41.5 -23.5t-49.5 -8.5zM436 356
l231 344h43l-246 -356l-231 -344h-43zM51 347l149 132q42 36 61 63t19 58q0 32 -23.5 53.5t-58.5 21.5q-34 0 -60.5 -18t-49.5 -54l-30 18q25 40 58.5 64.5t84.5 24.5q25 0 47 -8.5t38 -23t25 -34.5t9 -42q0 -41 -23 -72.5t-70 -72.5l-122 -106h219v-37h-273v33z" />
    <glyph glyph-name="onefifth" unicode="&#x2155;" horiz-adv-x="825" 
d="M632 -10q-42 0 -77.5 19t-61.5 49l28 26q51 -59 112 -59q46 0 73 26t27 63q0 39 -28 61t-71 22q-25 0 -47 -6t-43 -16l-27 16l13 195h225v-39h-192l-9 -130q19 8 39 12.5t44 4.5q28 0 53 -8t43.5 -23.5t29 -37t10.5 -48.5q0 -28 -11 -51.5t-30 -40t-45 -26t-55 -9.5z
M368 356l231 344h43l-246 -356l-231 -344h-43zM160 314v352l-90 -34l-9 35l105 40h33v-393h-39z" />
    <glyph glyph-name="twofifths" unicode="&#x2156;" horiz-adv-x="900" 
d="M707 -10q-42 0 -77.5 19t-61.5 49l28 26q51 -59 112 -59q46 0 73 26t27 63q0 39 -28 61t-71 22q-25 0 -47 -6t-43 -16l-27 16l13 195h225v-39h-192l-9 -130q19 8 39 12.5t44 4.5q28 0 53 -8t43.5 -23.5t29 -37t10.5 -48.5q0 -28 -11 -51.5t-30 -40t-45 -26t-55 -9.5z
M446 356l231 344h43l-246 -356l-231 -344h-43zM51 347l149 132q42 36 61 63t19 58q0 32 -23.5 53.5t-58.5 21.5q-34 0 -60.5 -18t-49.5 -54l-30 18q25 40 58.5 64.5t84.5 24.5q25 0 47 -8.5t38 -23t25 -34.5t9 -42q0 -41 -23 -72.5t-70 -72.5l-122 -106h219v-37h-273v33z
" />
    <glyph glyph-name="threefifths" unicode="&#x2157;" horiz-adv-x="900" 
d="M707 -10q-42 0 -77.5 19t-61.5 49l28 26q51 -59 112 -59q46 0 73 26t27 63q0 39 -28 61t-71 22q-25 0 -47 -6t-43 -16l-27 16l13 195h225v-39h-192l-9 -130q19 8 39 12.5t44 4.5q28 0 53 -8t43.5 -23.5t29 -37t10.5 -48.5q0 -28 -11 -51.5t-30 -40t-45 -26t-55 -9.5z
M431 356l231 344h43l-246 -356l-231 -344h-43zM188 304q-48 0 -83.5 20.5t-59.5 53.5l29 24q46 -63 115 -63q37 0 63 22.5t26 58.5q0 38 -32 59t-80 21h-28l-8 24l133 139h-198v37h248v-32l-128 -134q28 -2 52 -10t42 -22t28.5 -34.5t10.5 -47.5q0 -26 -10.5 -47.5
t-28.5 -36.5t-41.5 -23.5t-49.5 -8.5z" />
    <glyph glyph-name="fourfifths" unicode="&#x2158;" horiz-adv-x="900" 
d="M285 312h-37v91h-190l-12 32l194 271h45v-269h55v-34h-55v-91zM707 -10q-42 0 -77.5 19t-61.5 49l28 26q51 -59 112 -59q46 0 73 26t27 63q0 39 -28 61t-71 22q-25 0 -47 -6t-43 -16l-27 16l13 195h225v-39h-192l-9 -130q19 8 39 12.5t44 4.5q28 0 53 -8t43.5 -23.5
t29 -37t10.5 -48.5q0 -28 -11 -51.5t-30 -40t-45 -26t-55 -9.5zM446 356l231 344h43l-246 -356l-231 -344h-43zM248 656l-158 -219h158v219z" />
    <glyph glyph-name="onesixth" unicode="&#x2159;" horiz-adv-x="825" 
d="M633 -9q-29 0 -53 10t-41 27q-20 20 -33 53.5t-13 96.5v2q0 48 11.5 87.5t32 68t48.5 44.5t62 16q37 0 61.5 -12.5t47.5 -35.5l-25 -27q-18 18 -38.5 29t-47.5 11q-23 0 -43.5 -13t-36.5 -35.5t-25 -54t-9 -68.5q17 23 42 39t67 16q25 0 48 -8.5t40 -25t27 -39.5t10 -51
q0 -27 -10 -51t-28 -41.5t-42 -27.5t-52 -10zM376 356l231 344h43l-246 -356l-231 -344h-43zM632 26q42 0 68.5 25.5t26.5 67.5t-24.5 66.5t-66.5 24.5t-69.5 -26t-27.5 -65q0 -41 27.5 -67t65.5 -26zM160 314v352l-90 -34l-9 35l105 40h33v-393h-39z" />
    <glyph glyph-name="fivesixths" unicode="&#x215a;" horiz-adv-x="900" 
d="M708 -9q-29 0 -53 10t-41 27q-20 20 -33 53.5t-13 96.5v2q0 48 11.5 87.5t32 68t48.5 44.5t62 16q37 0 61.5 -12.5t47.5 -35.5l-25 -27q-18 18 -38.5 29t-47.5 11q-23 0 -43.5 -13t-36.5 -35.5t-25 -54t-9 -68.5q17 23 42 39t67 16q25 0 48 -8.5t40 -25t27 -39.5t10 -51
q0 -27 -10 -51t-28 -41.5t-42 -27.5t-52 -10zM187 304q-42 0 -77.5 19t-61.5 49l28 26q51 -59 112 -59q46 0 73 26t27 63q0 39 -28 61t-71 22q-25 0 -47 -6t-43 -16l-27 16l13 195h225v-39h-192l-9 -130q19 8 39 12.5t44 4.5q28 0 53 -8t43.5 -23.5t29 -37t10.5 -48.5
q0 -28 -11 -51.5t-30 -40t-45 -26t-55 -9.5zM436 356l231 344h43l-246 -356l-231 -344h-43zM707 26q42 0 68.5 25.5t26.5 67.5t-24.5 66.5t-66.5 24.5t-69.5 -26t-27.5 -65q0 -41 27.5 -67t65.5 -26z" />
    <glyph glyph-name="oneeighth" unicode="&#x215b;" horiz-adv-x="825" 
d="M635 -10q-61 0 -100.5 31t-39.5 81q0 35 21.5 59t53.5 38q-26 12 -44.5 34.5t-18.5 55.5q0 24 10.5 43.5t28.5 34t41.5 22t49.5 7.5q25 0 48 -8t41 -22t28.5 -33.5t10.5 -43.5q0 -33 -18 -55t-45 -35q32 -12 53.5 -37t21.5 -58q0 -26 -10.5 -47t-29.5 -36t-45 -23t-57 -8
zM636 361q-40 0 -65.5 -20t-25.5 -52t25.5 -53.5t65.5 -21.5t65.5 21.5t25.5 53.5t-25.5 52t-65.5 20zM636 182q-47 0 -75 -23t-28 -57t28 -55.5t75 -21.5t75 21.5t28 55.5t-28 57t-75 23zM376 356l231 344h43l-246 -356l-231 -344h-43zM160 314v352l-90 -34l-9 35l105 40
h33v-393h-39z" />
    <glyph glyph-name="threeeighths" unicode="&#x215c;" horiz-adv-x="900" 
d="M710 -10q-61 0 -100.5 31t-39.5 81q0 35 21.5 59t53.5 38q-26 12 -44.5 34.5t-18.5 55.5q0 24 10.5 43.5t28.5 34t41.5 22t49.5 7.5q25 0 48 -8t41 -22t28.5 -33.5t10.5 -43.5q0 -33 -18 -55t-45 -35q32 -12 53.5 -37t21.5 -58q0 -26 -10.5 -47t-29.5 -36t-45 -23t-57 -8
zM711 361q-40 0 -65.5 -20t-25.5 -52t25.5 -53.5t65.5 -21.5t65.5 21.5t25.5 53.5t-25.5 52t-65.5 20zM711 182q-47 0 -75 -23t-28 -57t28 -55.5t75 -21.5t75 21.5t28 55.5t-28 57t-75 23zM436 356l231 344h43l-246 -356l-231 -344h-43zM188 304q-48 0 -83.5 20.5
t-59.5 53.5l29 24q46 -63 115 -63q37 0 63 22.5t26 58.5q0 38 -32 59t-80 21h-28l-8 24l133 139h-198v37h248v-32l-128 -134q28 -2 52 -10t42 -22t28.5 -34.5t10.5 -47.5q0 -26 -10.5 -47.5t-28.5 -36.5t-41.5 -23.5t-49.5 -8.5z" />
    <glyph glyph-name="fiveeighths" unicode="&#x215d;" horiz-adv-x="900" 
d="M710 -10q-61 0 -100.5 31t-39.5 81q0 35 21.5 59t53.5 38q-26 12 -44.5 34.5t-18.5 55.5q0 24 10.5 43.5t28.5 34t41.5 22t49.5 7.5q25 0 48 -8t41 -22t28.5 -33.5t10.5 -43.5q0 -33 -18 -55t-45 -35q32 -12 53.5 -37t21.5 -58q0 -26 -10.5 -47t-29.5 -36t-45 -23t-57 -8
zM711 361q-40 0 -65.5 -20t-25.5 -52t25.5 -53.5t65.5 -21.5t65.5 21.5t25.5 53.5t-25.5 52t-65.5 20zM711 182q-47 0 -75 -23t-28 -57t28 -55.5t75 -21.5t75 21.5t28 55.5t-28 57t-75 23zM436 356l231 344h43l-246 -356l-231 -344h-43zM187 304q-42 0 -77.5 19t-61.5 49
l28 26q51 -59 112 -59q46 0 73 26t27 63q0 39 -28 61t-71 22q-25 0 -47 -6t-43 -16l-27 16l13 195h225v-39h-192l-9 -130q19 8 39 12.5t44 4.5q28 0 53 -8t43.5 -23.5t29 -37t10.5 -48.5q0 -28 -11 -51.5t-30 -40t-45 -26t-55 -9.5z" />
    <glyph glyph-name="seveneighths" unicode="&#x215e;" horiz-adv-x="900" 
d="M710 -10q-61 0 -100.5 31t-39.5 81q0 35 21.5 59t53.5 38q-26 12 -44.5 34.5t-18.5 55.5q0 24 10.5 43.5t28.5 34t41.5 22t49.5 7.5q25 0 48 -8t41 -22t28.5 -33.5t10.5 -43.5q0 -33 -18 -55t-45 -35q32 -12 53.5 -37t21.5 -58q0 -26 -10.5 -47t-29.5 -36t-45 -23t-57 -8
zM711 361q-40 0 -65.5 -20t-25.5 -52t25.5 -53.5t65.5 -21.5t65.5 21.5t25.5 53.5t-25.5 52t-65.5 20zM711 182q-47 0 -75 -23t-28 -57t28 -55.5t75 -21.5t75 21.5t28 55.5t-28 57t-75 23zM406 356l231 344h43l-246 -356l-231 -344h-43zM114 312l176 349h-220v39h265v-29
l-176 -359h-45z" />
    <glyph glyph-name="minus" unicode="&#x2212;" horiz-adv-x="620" 
d="M68 327v50h484v-50h-484z" />
    <glyph glyph-name="NUL" horiz-adv-x="0" 
 />
    <glyph glyph-name="Q.alt" horiz-adv-x="850" 
d="M594 30q-37 -20 -79.5 -31t-90.5 -11q-80 0 -144.5 29.5t-110.5 79t-71 114.5t-25 137v2q0 72 25.5 137.5t71.5 115.5t111 79.5t145 29.5q79 0 144 -29.5t111 -79t71 -114.5t25 -137v-2q0 -86 -35.5 -161.5t-99.5 -126.5l171 -160v-3h-76zM426 35q65 0 119.5 24.5t94 67
t61.5 99.5t22 122v2q0 65 -22.5 122.5t-62 100t-94.5 67.5t-120 25t-119.5 -24.5t-94 -67t-61.5 -99.5t-22 -122v-2q0 -65 22.5 -122.5t62 -100t94.5 -67.5t120 -25z" />
    <glyph glyph-name="a.alt" horiz-adv-x="660" 
d="M308 -12q-46 0 -90.5 18t-79.5 52t-56.5 83.5t-21.5 111.5v2q0 62 21.5 111.5t56.5 84t79.5 53t90.5 18.5q38 0 70 -10t57.5 -27t46 -39t36.5 -46v110h49v-510h-49v114q-17 -25 -37.5 -48t-46 -40t-57 -27.5t-69.5 -10.5zM313 35q40 0 77.5 16t66.5 45t46.5 69t17.5 89v2
q0 49 -17.5 89.5t-46.5 69t-66.5 44.5t-77.5 16q-42 0 -78.5 -15t-63.5 -43t-42.5 -68.5t-15.5 -91.5v-2q0 -50 16 -91t43.5 -69.5t64 -44t76.5 -15.5z" />
    <glyph glyph-name="aacute.alt" horiz-adv-x="660" 
d="M308 -12q-46 0 -90.5 18t-79.5 52t-56.5 83.5t-21.5 111.5v2q0 62 21.5 111.5t56.5 84t79.5 53t90.5 18.5q38 0 70 -10t57.5 -27t46 -39t36.5 -46v110h49v-510h-49v114q-17 -25 -37.5 -48t-46 -40t-57 -27.5t-69.5 -10.5zM313 35q40 0 77.5 16t66.5 45t46.5 69t17.5 89v2
q0 49 -17.5 89.5t-46.5 69t-66.5 44.5t-77.5 16q-42 0 -78.5 -15t-63.5 -43t-42.5 -68.5t-15.5 -91.5v-2q0 -50 16 -91t43.5 -69.5t64 -44t76.5 -15.5zM399 728l61 -30l-107 -103h-42z" />
    <glyph glyph-name="abreve.alt" horiz-adv-x="660" 
d="M308 -12q-46 0 -90.5 18t-79.5 52t-56.5 83.5t-21.5 111.5v2q0 62 21.5 111.5t56.5 84t79.5 53t90.5 18.5q38 0 70 -10t57.5 -27t46 -39t36.5 -46v110h49v-510h-49v114q-17 -25 -37.5 -48t-46 -40t-57 -27.5t-69.5 -10.5zM313 35q40 0 77.5 16t66.5 45t46.5 69t17.5 89v2
q0 49 -17.5 89.5t-46.5 69t-66.5 44.5t-77.5 16q-42 0 -78.5 -15t-63.5 -43t-42.5 -68.5t-15.5 -91.5v-2q0 -50 16 -91t43.5 -69.5t64 -44t76.5 -15.5zM332 593q-56 0 -92.5 29.5t-40.5 82.5h39q9 -28 32 -46t62 -18t62 18t32 46h39q-4 -53 -40.5 -82.5t-92.5 -29.5z" />
    <glyph glyph-name="acircumflex.alt" horiz-adv-x="660" 
d="M308 -12q-46 0 -90.5 18t-79.5 52t-56.5 83.5t-21.5 111.5v2q0 62 21.5 111.5t56.5 84t79.5 53t90.5 18.5q38 0 70 -10t57.5 -27t46 -39t36.5 -46v110h49v-510h-49v114q-17 -25 -37.5 -48t-46 -40t-57 -27.5t-69.5 -10.5zM313 35q40 0 77.5 16t66.5 45t46.5 69t17.5 89v2
q0 49 -17.5 89.5t-46.5 69t-66.5 44.5t-77.5 16q-42 0 -78.5 -15t-63.5 -43t-42.5 -68.5t-15.5 -91.5v-2q0 -50 16 -91t43.5 -69.5t64 -44t76.5 -15.5zM312 717h40l100 -122h-47l-74 68l-74 -68h-45z" />
    <glyph glyph-name="adieresis.alt" horiz-adv-x="660" 
d="M308 -12q-46 0 -90.5 18t-79.5 52t-56.5 83.5t-21.5 111.5v2q0 62 21.5 111.5t56.5 84t79.5 53t90.5 18.5q38 0 70 -10t57.5 -27t46 -39t36.5 -46v110h49v-510h-49v114q-17 -25 -37.5 -48t-46 -40t-57 -27.5t-69.5 -10.5zM313 35q40 0 77.5 16t66.5 45t46.5 69t17.5 89v2
q0 49 -17.5 89.5t-46.5 69t-66.5 44.5t-77.5 16q-42 0 -78.5 -15t-63.5 -43t-42.5 -68.5t-15.5 -91.5v-2q0 -50 16 -91t43.5 -69.5t64 -44t76.5 -15.5zM379 675h69v-80h-69v80zM216 675h69v-80h-69v80z" />
    <glyph glyph-name="agrave.alt" horiz-adv-x="660" 
d="M308 -12q-46 0 -90.5 18t-79.5 52t-56.5 83.5t-21.5 111.5v2q0 62 21.5 111.5t56.5 84t79.5 53t90.5 18.5q38 0 70 -10t57.5 -27t46 -39t36.5 -46v110h49v-510h-49v114q-17 -25 -37.5 -48t-46 -40t-57 -27.5t-69.5 -10.5zM313 35q40 0 77.5 16t66.5 45t46.5 69t17.5 89v2
q0 49 -17.5 89.5t-46.5 69t-66.5 44.5t-77.5 16q-42 0 -78.5 -15t-63.5 -43t-42.5 -68.5t-15.5 -91.5v-2q0 -50 16 -91t43.5 -69.5t64 -44t76.5 -15.5zM204 698l61 30l88 -133h-42z" />
    <glyph glyph-name="amacron.alt" horiz-adv-x="660" 
d="M308 -12q-46 0 -90.5 18t-79.5 52t-56.5 83.5t-21.5 111.5v2q0 62 21.5 111.5t56.5 84t79.5 53t90.5 18.5q38 0 70 -10t57.5 -27t46 -39t36.5 -46v110h49v-510h-49v114q-17 -25 -37.5 -48t-46 -40t-57 -27.5t-69.5 -10.5zM313 35q40 0 77.5 16t66.5 45t46.5 69t17.5 89v2
q0 49 -17.5 89.5t-46.5 69t-66.5 44.5t-77.5 16q-42 0 -78.5 -15t-63.5 -43t-42.5 -68.5t-15.5 -91.5v-2q0 -50 16 -91t43.5 -69.5t64 -44t76.5 -15.5zM185 668h294v-47h-294v47z" />
    <glyph glyph-name="aogonek.alt" horiz-adv-x="660" 
d="M583 -164q-63 2 -94.5 23t-31.5 56q0 26 15.5 48t45.5 45v106q-17 -25 -37.5 -48t-46 -40t-57 -27.5t-69.5 -10.5q-46 0 -90.5 18t-79.5 52t-56.5 83.5t-21.5 111.5v2q0 62 21.5 111.5t56.5 84t79.5 53t90.5 18.5q38 0 70 -10t57.5 -27t46 -39t36.5 -46v110h49v-510h-4
q-29 -23 -42.5 -40.5t-13.5 -38.5t17 -33t59 -16v-36zM313 35q40 0 77.5 16t66.5 45t46.5 69t17.5 89v2q0 49 -17.5 89.5t-46.5 69t-66.5 44.5t-77.5 16q-42 0 -78.5 -15t-63.5 -43t-42.5 -68.5t-15.5 -91.5v-2q0 -50 16 -91t43.5 -69.5t64 -44t76.5 -15.5z" />
    <glyph glyph-name="aring.alt" horiz-adv-x="660" 
d="M308 -12q-46 0 -90.5 18t-79.5 52t-56.5 83.5t-21.5 111.5v2q0 62 21.5 111.5t56.5 84t79.5 53t90.5 18.5q38 0 70 -10t57.5 -27t46 -39t36.5 -46v110h49v-510h-49v114q-17 -25 -37.5 -48t-46 -40t-57 -27.5t-69.5 -10.5zM313 35q40 0 77.5 16t66.5 45t46.5 69t17.5 89v2
q0 49 -17.5 89.5t-46.5 69t-66.5 44.5t-77.5 16q-42 0 -78.5 -15t-63.5 -43t-42.5 -68.5t-15.5 -91.5v-2q0 -50 16 -91t43.5 -69.5t64 -44t76.5 -15.5zM332 593q-21 0 -40 8t-33.5 21.5t-22.5 31.5t-8 39t8 39t22.5 31.5t33.5 21.5t40 8t40 -8t33.5 -21.5t22.5 -31.5t8 -39
t-8 -39t-22.5 -31.5t-33.5 -21.5t-40 -8zM332 623q29 0 49.5 20.5t20.5 49.5t-20.5 49.5t-49.5 20.5t-49.5 -20.5t-20.5 -49.5t20.5 -49.5t49.5 -20.5z" />
    <glyph glyph-name="aring.alt2" horiz-adv-x="574" 
d="M248 -12q-36 0 -71 10t-63 30t-45.5 50t-17.5 70v2q0 40 16.5 71t45.5 52t70 32t91 11q54 0 93 -6t76 -16v22q0 78 -44.5 117t-123.5 39q-47 0 -86 -11.5t-74 -29.5l-18 43q30 14 60 24.5t64 15.5q-17 13 -27.5 32t-10.5 42q0 21 8 39t22.5 31.5t33.5 21.5t40 8t40 -8
t33.5 -21.5t22.5 -31.5t8 -39q0 -25 -11.5 -45t-31.5 -33q28 -6 50.5 -18.5t40.5 -29.5q52 -52 52 -144v-318h-48v85q-13 -18 -31.5 -35.5t-42.5 -31t-54.5 -22t-66.5 -8.5zM251 34q39 0 74 11.5t61.5 32t42 49.5t15.5 64v58q-32 8 -75 15.5t-98 7.5q-81 0 -124.5 -32.5
t-43.5 -86.5v-2q0 -28 12 -49.5t32.5 -36.5t47.5 -23t56 -8zM217 588q0 -29 20.5 -49.5t49.5 -20.5t49.5 20.5t20.5 49.5t-20.5 49.5t-49.5 20.5t-49.5 -20.5t-20.5 -49.5z" />
    <glyph glyph-name="aringacute.alt" horiz-adv-x="660" 
d="M399 938l59 -30l-104 -88h-44zM308 -12q-46 0 -90.5 18t-79.5 52t-56.5 83.5t-21.5 111.5v2q0 62 21.5 111.5t56.5 84t79.5 53t90.5 18.5q38 0 70 -10t57.5 -27t46 -39t36.5 -46v110h49v-510h-49v114q-17 -25 -37.5 -48t-46 -40t-57 -27.5t-69.5 -10.5zM313 35
q40 0 77.5 16t66.5 45t46.5 69t17.5 89v2q0 49 -17.5 89.5t-46.5 69t-66.5 44.5t-77.5 16q-42 0 -78.5 -15t-63.5 -43t-42.5 -68.5t-15.5 -91.5v-2q0 -50 16 -91t43.5 -69.5t64 -44t76.5 -15.5zM332 593q-21 0 -40 8t-33.5 21.5t-22.5 31.5t-8 39t8 39t22.5 31.5t33.5 21.5
t40 8t40 -8t33.5 -21.5t22.5 -31.5t8 -39t-8 -39t-22.5 -31.5t-33.5 -21.5t-40 -8zM332 623q29 0 49.5 20.5t20.5 49.5t-20.5 49.5t-49.5 20.5t-49.5 -20.5t-20.5 -49.5t20.5 -49.5t49.5 -20.5z" />
    <glyph glyph-name="aringacute.alt2" horiz-adv-x="574" 
d="M354 842l59 -30l-104 -88h-44zM248 -12q-36 0 -71 10t-63 30t-45.5 50t-17.5 70v2q0 40 16.5 71t45.5 52t70 32t91 11q54 0 93 -6t76 -16v22q0 78 -44.5 117t-123.5 39q-47 0 -86 -11.5t-74 -29.5l-18 43q30 14 60 24.5t64 15.5q-17 13 -27.5 32t-10.5 42q0 21 8 39
t22.5 31.5t33.5 21.5t40 8t40 -8t33.5 -21.5t22.5 -31.5t8 -39q0 -25 -11.5 -45t-31.5 -33q28 -6 50.5 -18.5t40.5 -29.5q52 -52 52 -144v-318h-48v85q-13 -18 -31.5 -35.5t-42.5 -31t-54.5 -22t-66.5 -8.5zM251 34q39 0 74 11.5t61.5 32t42 49.5t15.5 64v58q-32 8 -75 15.5
t-98 7.5q-81 0 -124.5 -32.5t-43.5 -86.5v-2q0 -28 12 -49.5t32.5 -36.5t47.5 -23t56 -8zM217 588q0 -29 20.5 -49.5t49.5 -20.5t49.5 20.5t20.5 49.5t-20.5 49.5t-49.5 20.5t-49.5 -20.5t-20.5 -49.5z" />
    <glyph glyph-name="atilde.alt" horiz-adv-x="660" 
d="M308 -12q-46 0 -90.5 18t-79.5 52t-56.5 83.5t-21.5 111.5v2q0 62 21.5 111.5t56.5 84t79.5 53t90.5 18.5q38 0 70 -10t57.5 -27t46 -39t36.5 -46v110h49v-510h-49v114q-17 -25 -37.5 -48t-46 -40t-57 -27.5t-69.5 -10.5zM313 35q40 0 77.5 16t66.5 45t46.5 69t17.5 89v2
q0 49 -17.5 89.5t-46.5 69t-66.5 44.5t-77.5 16q-42 0 -78.5 -15t-63.5 -43t-42.5 -68.5t-15.5 -91.5v-2q0 -50 16 -91t43.5 -69.5t64 -44t76.5 -15.5zM399 595q-14 0 -30 6t-35 14q-17 8 -33.5 14.5t-29.5 6.5q-18 0 -28.5 -10.5t-21.5 -39.5l-34 9q14 54 34 73.5t50 19.5
q14 0 30 -6t35 -14q17 -8 33.5 -14.5t29.5 -6.5q18 0 28.5 10.5t21.5 39.5l34 -9q-14 -54 -34 -73.5t-50 -19.5z" />
    <glyph glyph-name="three.alt" horiz-adv-x="600" 
d="M303 -12q-85 0 -150.5 36.5t-107.5 92.5l42 31q39 -52 93 -82.5t125 -30.5q38 0 70.5 10.5t56.5 30t37.5 47t13.5 60.5v2q0 68 -54 106.5t-153 38.5h-70v46h71q40 0 74 10t59 28.5t39.5 45.5t14.5 62v2q0 30 -12 56t-34 45t-53 29.5t-69 10.5q-64 0 -110.5 -27.5
t-84.5 -79.5l-40 24q40 59 98 94.5t139 35.5q48 0 88 -14t69.5 -39t46 -59t16.5 -74v-2q0 -36 -11.5 -63.5t-30.5 -47.5t-43 -33.5t-48 -21.5q32 -9 60 -24.5t48.5 -36.5t32 -49t11.5 -62v-2q0 -41 -17.5 -76.5t-48.5 -62t-74 -42t-94 -15.5z" />
    <glyph glyph-name="registered.alt" horiz-adv-x="830" 
d="M414 -12q-76 0 -142 28.5t-114.5 77.5t-76.5 114.5t-28 139.5v2q0 74 28 139.5t77 115t115.5 78.5t142.5 29t142 -28.5t114.5 -77.5t76.5 -114.5t28 -139.5v-2q0 -74 -28 -139.5t-77 -115t-115.5 -78.5t-142.5 -29zM414 16q71 0 132 26.5t105.5 72t70 106t25.5 129.5v2
q0 69 -25 129.5t-69.5 105.5t-105 71t-131.5 26t-132 -26.5t-105.5 -72t-70 -106t-25.5 -129.5v-2q0 -69 25 -129.5t69.5 -105.5t105 -71t131.5 -26zM276 543h164q34 0 62 -10t45 -27q12 -12 20 -29.5t8 -38.5v-2q0 -45 -27.5 -71t-72.5 -34l122 -154h-56l-116 147h-106
v-147h-43v366zM433 364q42 0 69.5 17.5t27.5 52.5v2q0 30 -24.5 48t-67.5 18h-119v-138h114z" />
    <glyph glyph-name="R_p" horiz-adv-x="1180" 
d="M683 514h48v-110q14 24 32 46t40.5 38.5t50 26.5t60.5 10q40 0 79.5 -18t70 -51.5t49.5 -82.5t19 -112v-7q0 -62 -19 -111.5t-49.5 -83.5t-70 -52t-79.5 -18q-33 0 -60.5 9.5t-50 26t-41 38t-31.5 44.5v-267h-48v674zM85 700h232q55 0 99 -15t75 -42t47.5 -64t16.5 -82
v-2q0 -42 -13.5 -75.5t-37.5 -59t-56.5 -43t-69.5 -25.5l203 -292h-62l-196 284h-189v-284h-49v700zM909 33q35 0 66.5 15t55 43t37.5 69t14 93v7q0 51 -14 92t-38 69.5t-55.5 44t-65.5 15.5t-66.5 -15.5t-58 -44t-41 -69t-15.5 -90.5v-9q0 -50 15.5 -91t41 -69.5t58 -44
t66.5 -15.5zM312 328q42 0 77.5 11.5t61 32.5t40 51.5t14.5 69.5v2q0 75 -50.5 117t-140.5 42h-180v-326h178z" />
    <glyph glyph-name="onehalf.alt" horiz-adv-x="900" 
d="M571 33l149 132q42 36 61 63t19 58q0 32 -23.5 53.5t-58.5 21.5q-34 0 -60.5 -18t-49.5 -54l-30 18q25 40 58.5 64.5t84.5 24.5q25 0 47 -8.5t38 -23t25 -34.5t9 -42q0 -41 -23 -72.5t-70 -72.5l-122 -106h219v-37h-273v33zM456 356l231 344h43l-246 -356l-231 -344h-43z
M73 314v34h119v318l-105 -37l-9 35l120 43h33v-359h111v-34h-269z" />
    <glyph glyph-name="onethird.alt" horiz-adv-x="900" 
d="M708 -10q-48 0 -83.5 20.5t-59.5 53.5l29 24q46 -63 115 -63q37 0 63 22.5t26 58.5q0 38 -32 59t-80 21h-28l-8 24l133 139h-198v37h248v-32l-128 -134q28 -2 52 -10t42 -22t28.5 -34.5t10.5 -47.5q0 -26 -10.5 -47.5t-28.5 -36.5t-41.5 -23.5t-49.5 -8.5zM446 356
l231 344h43l-246 -356l-231 -344h-43zM73 314v34h119v318l-105 -37l-9 35l120 43h33v-359h111v-34h-269z" />
    <glyph glyph-name="onequarter.alt" horiz-adv-x="900" 
d="M795 -2h-37v91h-190l-12 32l194 271h45v-269h55v-34h-55v-91zM461 356l231 344h43l-246 -356l-231 -344h-43zM73 314v34h119v318l-105 -37l-9 35l120 43h33v-359h111v-34h-269zM758 342l-158 -219h158v219z" />
    <glyph glyph-name="onefifth.alt" horiz-adv-x="900" 
d="M707 -10q-42 0 -77.5 19t-61.5 49l28 26q51 -59 112 -59q46 0 73 26t27 63q0 39 -28 61t-71 22q-25 0 -47 -6t-43 -16l-27 16l13 195h225v-39h-192l-9 -130q19 8 39 12.5t44 4.5q28 0 53 -8t43.5 -23.5t29 -37t10.5 -48.5q0 -28 -11 -51.5t-30 -40t-45 -26t-55 -9.5z
M451 356l231 344h43l-246 -356l-231 -344h-43zM73 314v34h119v318l-105 -37l-9 35l120 43h33v-359h111v-34h-269z" />
    <glyph glyph-name="onesixth.alt" horiz-adv-x="900" 
d="M708 -9q-29 0 -53 10t-41 27q-20 20 -33 53.5t-13 96.5v2q0 48 11.5 87.5t32 68t48.5 44.5t62 16q37 0 61.5 -12.5t47.5 -35.5l-25 -27q-18 18 -38.5 29t-47.5 11q-23 0 -43.5 -13t-36.5 -35.5t-25 -54t-9 -68.5q17 23 42 39t67 16q25 0 48 -8.5t40 -25t27 -39.5t10 -51
q0 -27 -10 -51t-28 -41.5t-42 -27.5t-52 -10zM451 356l231 344h43l-246 -356l-231 -344h-43zM707 26q42 0 68.5 25.5t26.5 67.5t-24.5 66.5t-66.5 24.5t-69.5 -26t-27.5 -65q0 -41 27.5 -67t65.5 -26zM73 314v34h119v318l-105 -37l-9 35l120 43h33v-359h111v-34h-269z" />
    <glyph glyph-name="oneeighth.alt" horiz-adv-x="900" 
d="M710 -10q-61 0 -100.5 31t-39.5 81q0 35 21.5 59t53.5 38q-26 12 -44.5 34.5t-18.5 55.5q0 24 10.5 43.5t28.5 34t41.5 22t49.5 7.5q25 0 48 -8t41 -22t28.5 -33.5t10.5 -43.5q0 -33 -18 -55t-45 -35q32 -12 53.5 -37t21.5 -58q0 -26 -10.5 -47t-29.5 -36t-45 -23t-57 -8
zM711 361q-40 0 -65.5 -20t-25.5 -52t25.5 -53.5t65.5 -21.5t65.5 21.5t25.5 53.5t-25.5 52t-65.5 20zM711 182q-47 0 -75 -23t-28 -57t28 -55.5t75 -21.5t75 21.5t28 55.5t-28 57t-75 23zM451 356l231 344h43l-246 -356l-231 -344h-43zM73 314v34h119v318l-105 -37l-9 35
l120 43h33v-359h111v-34h-269z" />
    <glyph glyph-name="one.sup_alt" 
d="M78 426v34h119v318l-105 -37l-9 35l120 43h33v-359h111v-34h-269z" />
    <glyph glyph-name="one.inf_alt" 
d="M78 -132v34h119v318l-105 -37l-9 35l120 43h33v-359h111v-34h-269z" />
    <glyph glyph-name="zero.tab" horiz-adv-x="600" 
d="M299 -12q-52 0 -96.5 24.5t-77 70.5t-51 112.5t-18.5 150.5v6q0 84 19 151t52 113.5t77.5 71t96.5 24.5q51 0 95.5 -24.5t77.5 -70.5t51.5 -112.5t18.5 -150.5v-6q0 -84 -19 -151t-52 -113.5t-77.5 -71t-96.5 -24.5zM300 666q-41 0 -75.5 -21t-60.5 -61t-40.5 -98
t-14.5 -132v-6q0 -74 14.5 -132t40 -98.5t60.5 -62t76 -21.5q40 0 75 21t61 61t40.5 98t14.5 132v6q0 74 -14.5 132t-40 98.5t-60.5 62t-76 21.5z" />
    <glyph glyph-name="one.tab" horiz-adv-x="600" 
d="M91 0v48h219v601l-195 -67l-14 44l220 79h40v-657h200v-48h-470z" />
    <glyph glyph-name="two.tab" horiz-adv-x="600" 
d="M53 0v39l261 236q43 39 73 71t48.5 60t26.5 54t8 54q0 34 -13 62t-34.5 47.5t-50.5 30t-61 10.5q-68 0 -115 -35t-89 -101l-40 25q23 36 47.5 65t54 49.5t65 31.5t80.5 11t83.5 -14.5t66.5 -40.5t44 -61t16 -76v-2q0 -36 -10 -67.5t-31.5 -63t-54.5 -65.5t-79 -76
l-215 -194h397v-50h-478z" />
    <glyph glyph-name="three.tab" horiz-adv-x="600" 
d="M296 -12q-84 0 -143 34t-99 88l39 33q40 -51 88.5 -79.5t116.5 -28.5q35 0 67.5 11t57 32t39.5 50.5t15 67.5v2q0 69 -54 106t-141 37h-56l-19 34l249 276h-373v49h437v-47l-241 -266q51 0 97 -11.5t80.5 -34.5t54.5 -58.5t20 -82.5v-2q0 -48 -20 -87t-52.5 -66t-75 -42
t-87.5 -15z" />
    <glyph glyph-name="three.tab_alt" horiz-adv-x="600" 
d="M296 -12q-80 0 -145 36t-104 93l41 27q37 -52 90 -81.5t120 -29.5q40 0 74.5 10.5t59 30.5t38.5 47.5t14 62.5q0 69 -54 107.5t-154 38.5h-69v46h75q40 0 74.5 10t60 28.5t40 46t14.5 63.5q0 64 -46 103.5t-125 39.5q-66 0 -114 -28.5t-85 -79.5l-39 23q40 59 99.5 94.5
t140.5 35.5q49 0 89.5 -14t69.5 -39t45.5 -59t16.5 -74q0 -36 -11.5 -64t-30.5 -49t-43.5 -35t-49.5 -23q31 -9 58.5 -24t47 -35.5t31 -48t11.5 -62.5q0 -41 -17.5 -77t-49.5 -62.5t-76 -42t-97 -15.5z" />
    <glyph glyph-name="four.tab" horiz-adv-x="600" 
d="M412 169h-358l-15 43l360 492h61v-491h104v-44h-104v-169h-48v169zM412 646l-317 -433h317v433z" />
    <glyph glyph-name="five.tab" horiz-adv-x="600" 
d="M298 -12q-78 0 -138 32t-104 80l38 35q45 -48 95 -74.5t111 -26.5q42 0 76 13.5t59 37t38.5 55.5t13.5 69v2q0 37 -13.5 67.5t-38 52.5t-58.5 34t-75 12q-51 0 -91 -13t-73 -30l-39 25l24 341h387v-50h-343l-19 -263q34 17 72 27.5t86 10.5q50 0 93 -15.5t74.5 -43.5
t49.5 -67t18 -86v-2q0 -50 -19 -91t-51.5 -70t-77 -45.5t-95.5 -16.5z" />
    <glyph glyph-name="six.tab" horiz-adv-x="600" 
d="M319 440q45 0 86 -15t72 -43.5t49 -68.5t18 -91v-1q0 -50 -18.5 -93t-50 -74t-73.5 -48.5t-90 -17.5q-50 0 -93.5 18t-72.5 47q-21 21 -36.5 45t-26.5 56t-16.5 74t-5.5 98v4q0 82 19 152t55 121t87.5 80t116.5 29q55 0 97.5 -20t80.5 -53l-32 -39q-29 28 -66 47t-84 19
q-53 0 -94.5 -26.5t-70 -71.5t-43.5 -105t-15 -126v-19q32 60 84.5 91t122.5 31zM311 33q42 0 75.5 14.5t57 40t36 59.5t12.5 73q0 40 -13.5 72.5t-36.5 55t-55.5 35t-69.5 12.5q-45 0 -80 -14.5t-59.5 -39t-37 -57t-12.5 -67.5q0 -41 14.5 -75t39 -58t58 -37.5t71.5 -13.5z
" />
    <glyph glyph-name="seven.tab" horiz-adv-x="600" 
d="M74 650v50h464v-38l-319 -662h-57l318 650h-406z" />
    <glyph glyph-name="eight.tab" horiz-adv-x="600" 
d="M300 -11q-53 0 -98.5 14.5t-78.5 40.5t-52 62t-19 79v3q0 31 11.5 58t31.5 49t47 39t59 28q-25 10 -48 25.5t-40 36t-27.5 46t-10.5 56.5v3q0 41 19 74.5t50 57.5t71.5 37t84.5 13q43 0 84 -13t72 -37t50 -57.5t19 -74.5v-3q0 -31 -10.5 -56.5t-27.5 -46t-40 -36
t-48 -25.5q32 -11 59 -28t47 -39t31.5 -49t11.5 -58v-3q0 -43 -19 -79t-52.5 -62t-79 -40.5t-97.5 -14.5zM300 381q35 0 66.5 10.5t55 30t37 46t13.5 58.5v2q0 30 -13 55.5t-36.5 43.5t-55 28.5t-67.5 10.5t-67.5 -10.5t-55 -28.5t-36.5 -43.5t-13 -55.5v-2
q0 -32 13.5 -58.5t37 -46t55 -30t66.5 -10.5zM300 34q46 0 82 12t61 33t38.5 48t13.5 57v2q0 33 -15.5 60.5t-41.5 47.5t-62 31.5t-76 11.5q-41 0 -76.5 -11.5t-61.5 -31.5t-41.5 -47.5t-15.5 -60.5v-2q0 -30 13.5 -57t38.5 -48t61 -33t82 -12z" />
    <glyph glyph-name="nine.tab" horiz-adv-x="600" 
d="M280 254q-45 0 -86 15t-71.5 43.5t-48.5 69.5t-18 93v1q0 51 18 94.5t49.5 75t74 49t90.5 17.5q50 0 93.5 -18t72.5 -47q21 -21 36.5 -45t26.5 -56t16.5 -74t5.5 -98v-4q0 -83 -19 -153t-55 -121t-87.5 -79.5t-116.5 -28.5q-55 0 -100.5 21.5t-87.5 56.5l32 39
q38 -33 75.5 -52t84.5 -19q53 0 94.5 27.5t70 73.5t43.5 106t15 124v11q-33 -60 -86 -91t-122 -31zM289 667q-42 0 -75.5 -15t-57 -40.5t-36 -60.5t-12.5 -74q0 -41 13 -74t36.5 -56t55 -35.5t69.5 -12.5q45 0 80.5 15t59.5 39.5t37 57.5t13 69q0 42 -14.5 76t-39 59
t-58 38.5t-71.5 13.5z" />
    <glyph glyph-name="period.tab" horiz-adv-x="300" 
d="M109 95h82v-95h-82v95z" />
    <glyph glyph-name="comma.tab" horiz-adv-x="300" 
d="M88 -82q32 17 45 35t11 47h-35v95h82v-84q0 -47 -23 -74t-68 -44z" />
    <glyph glyph-name="colon.tab" horiz-adv-x="300" 
d="M109 510h82v-95h-82v95zM109 95h82v-95h-82v95z" />
    <glyph glyph-name="semicolon.tab" horiz-adv-x="300" 
d="M109 510h82v-95h-82v95zM88 -82q32 17 45 35t11 47h-35v95h82v-84q0 -47 -23 -74t-68 -44z" />
    <glyph glyph-name="twodotleader.tab" horiz-adv-x="600" 
d="M411 89h78v-89h-78v89zM111 89h78v-89h-78v89z" />
    <glyph glyph-name="periodcentered.tab" horiz-adv-x="300" 
d="M109 345h82v-95h-82v95z" />
    <glyph glyph-name="slash.tab" horiz-adv-x="600" 
d="M62 -128h-50l511 926h50z" />
    <glyph glyph-name="bar.tab" horiz-adv-x="300" 
d="M128 798h44v-926h-44v926z" />
    <glyph glyph-name="underscore.tab" horiz-adv-x="600" 
d="M-2 -116h604v-44h-604v44z" />
    <glyph glyph-name="dollar.tab" horiz-adv-x="600" 
d="M374 693q41 -9 77 -27t71 -45l-30 -40q-63 51 -127 67l-34 -277q109 -24 159 -68t50 -120q0 -39 -17 -72.5t-47 -58.5t-72 -39t-92 -14h-12t-11 1l-15 -118h-46l15 123q-57 10 -104 34.5t-85 60.5l31 38q37 -35 76.5 -58t89.5 -31l35 283q-107 24 -156 70t-49 120
q0 39 16 72t44.5 57t68 37t85.5 13q8 0 16.5 -0.5t16.5 -1.5l10 80h46zM490 180q0 28 -8 50t-27 39.5t-51 30.5t-79 24l-34 -280h24q40 0 72.5 10.5t55 29t35 43.5t12.5 53zM131 524q0 -24 7 -45.5t25 -40t49 -33.5t79 -26l34 275q-8 1 -16 1.5t-16 0.5q-73 0 -117.5 -36.5
t-44.5 -95.5z" />
    <glyph glyph-name="sterling.tab" horiz-adv-x="600" 
d="M146 478q0 54 15.5 98.5t46.5 75.5q26 26 62 42t85 16q63 0 109.5 -26.5t78.5 -65.5l-37 -34q-28 34 -65.5 57t-85.5 23q-38 0 -64.5 -11.5t-46.5 -31.5q-48 -48 -48 -141v-125h277v-45h-277v-264h350v-46h-481v24l81 20v266h-82v45h82v123z" />
    <glyph glyph-name="Euro.tab" horiz-adv-x="600" 
d="M42 459h82q10 53 31.5 99.5t53 80.5t72 53.5t88.5 19.5q33 0 59.5 -7.5t49 -21t41 -31.5t33.5 -39l-37 -31q-30 42 -65 64t-82 22q-38 0 -69.5 -16t-56.5 -44t-42.5 -66t-26.5 -83h249v-43h-256q-3 -30 -3 -62v-6q0 -30 3 -57h256v-43h-250q9 -46 26 -85.5t41.5 -68.5
t56 -45.5t70.5 -16.5q27 0 48.5 6t40 17.5t34.5 28t32 37.5l33 -27q-32 -45 -77.5 -75.5t-112.5 -30.5q-47 0 -86.5 18.5t-71 53t-53 82t-31.5 106.5h-80v43h74q-2 13 -2 26.5v27.5v10q0 31 3 61h-75v43z" />
    <glyph glyph-name="yen.tab" horiz-adv-x="600" 
d="M276 160v110h-184v42h170l-237 388h59l217 -368l217 368h57l-238 -388h171v-42h-184v-110h184v-42h-184v-118h-48v118h-184v42h184z" />
    <glyph glyph-name="cent.tab" horiz-adv-x="600" 
d="M391 614q47 -11 82 -35t64 -55l-35 -34q-26 29 -55.5 50.5t-68.5 31.5l-88 -439q7 -1 14 -1h15q62 0 108.5 27t80.5 65l33 -29q-40 -45 -95.5 -76t-129.5 -31h-16.5t-16.5 2l-20 -96h-49l22 106q-40 13 -72.5 37t-56 57t-36 72.5t-12.5 83.5v2q0 53 20 102t56 86.5
t84.5 59.5t105.5 22h9t9 -1l18 85h49zM110 351q0 -75 38 -130.5t100 -77.5l87 435h-11q-47 0 -86 -18t-67.5 -48.5t-44.5 -71.5t-16 -87v-2z" />
    <glyph glyph-name="numbersign.tab" horiz-adv-x="600" 
d="M144 233l33 238h-109v45h115l26 184h44l-26 -184h192l26 184h44l-26 -184h102v-45h-108l-33 -238h108v-45h-115l-26 -188h-44l26 188h-192l-26 -188h-44l26 188h-102v45h109zM187 233h192l34 238h-192z" />
    <glyph glyph-name="paragraph.tab" horiz-adv-x="600" 
d="M426 277h-82q-58 0 -106.5 14t-84 41t-55.5 66t-20 88q0 51 20 90.5t56 67t86.5 42t112.5 14.5h126v-700h-53v277z" />
    <glyph glyph-name="section.tab" horiz-adv-x="600" 
d="M314 -10q-62 0 -119 24t-95 62l34 38q33 -32 80 -55t105 -23q51 0 79 21.5t28 53.5q0 36 -36 61.5t-114 46.5q-62 16 -103 32.5t-66.5 34.5t-36 38t-10.5 45q0 45 38.5 75t105.5 35q-38 20 -60 45.5t-22 60.5q0 28 12.5 51t34.5 39.5t52 25.5t65 9q62 0 119 -24t95 -62
l-34 -38q-33 32 -80 55t-105 23q-51 0 -79 -21.5t-28 -53.5q0 -36 36 -61.5t114 -46.5q61 -17 102.5 -33t67 -34t36 -38t10.5 -45q0 -45 -38.5 -75t-105.5 -35q38 -20 60 -45.5t22 -60.5q0 -28 -12.5 -51t-34.5 -39.5t-52 -25.5t-65 -9zM233 448q-58 1 -90 -22t-32 -54
q0 -32 30.5 -55.5t109.5 -44.5q23 -6 39.5 -10t29 -6t24 -3t23.5 -1q29 -1 51.5 5t38.5 16.5t24 25t8 29.5q0 32 -30.5 55.5t-109.5 44.5q-23 6 -39.5 9.5t-30 6t-24.5 3.5t-22 1z" />
    <glyph glyph-name="degree.tab" horiz-adv-x="600" 
d="M299 313q-41 0 -77.5 15.5t-63.5 42t-43 62.5t-16 77t16 77t44 62.5t64.5 42t77.5 15.5t77.5 -15.5t63.5 -42t43 -62.5t16 -77t-16 -77t-44 -62.5t-64.5 -42t-77.5 -15.5zM301 356q33 0 60.5 12t47.5 32.5t31.5 48.5t11.5 61t-11.5 61t-32 48.5t-48.5 32.5t-61 12
t-60.5 -12t-47.5 -32.5t-31.5 -48.5t-11.5 -61t11.5 -61t32 -48.5t48.5 -32.5t61 -12z" />
    <glyph glyph-name="percent.tab" horiz-adv-x="600" 
d="M155 708q27 0 48.5 -13t36.5 -35.5t23.5 -52.5t8.5 -65v-4q0 -35 -8.5 -65.5t-23.5 -53.5t-36.5 -36t-48.5 -13t-48.5 13t-36.5 35.5t-23.5 52.5t-8.5 65v4q0 35 8.5 65.5t23.5 53.5t36.5 36t48.5 13zM445 330q27 0 48.5 -13t36.5 -35.5t23.5 -52.5t8.5 -65v-4
q0 -35 -8.5 -65.5t-23.5 -53.5t-36.5 -36t-48.5 -13t-48.5 13t-36.5 35.5t-23.5 52.5t-8.5 65v4q0 35 8.5 65.5t23.5 53.5t36.5 36t48.5 13zM445 293q-19 0 -33 -10.5t-23.5 -28.5t-14 -41t-4.5 -48v-8q0 -25 4.5 -48t14 -41t23.5 -28.5t33 -10.5t33 10.5t23.5 28.5t14 41
t4.5 48v8q0 25 -4.5 48t-14 41t-23.5 28.5t-33 10.5zM155 671q-19 0 -33 -10.5t-23.5 -28.5t-14 -41t-4.5 -48v-8q0 -25 4.5 -48t14 -41t23.5 -28.5t33 -10.5t33 10.5t23.5 28.5t14 41t4.5 48v8q0 25 -4.5 48t-14 41t-23.5 28.5t-33 10.5zM509 700l-194 -358l-182 -342h-42
l194 358l182 342h42z" />
    <glyph glyph-name="quotedbl.tab" horiz-adv-x="600" 
d="M413 700h66v-5l-101 -249h-30zM203 700h66v-5l-101 -249h-30z" />
    <glyph glyph-name="quotesingle.tab" horiz-adv-x="300" 
d="M158 700h66v-5l-101 -249h-30z" />
    <glyph glyph-name="plus.tab" horiz-adv-x="600" 
d="M325 328v-213h-50v213h-207v48h207v213h50v-213h207v-48h-207z" />
    <glyph glyph-name="minus.tab" horiz-adv-x="600" 
d="M68 327v50h464v-50h-464z" />
    <glyph glyph-name="divide.tab" horiz-adv-x="600" 
d="M260 589h80v-89h-80v89zM68 328v48h464v-48h-464zM260 204h80v-89h-80v89z" />
    <glyph glyph-name="equal.tab" horiz-adv-x="600" 
d="M85 438v49h430v-49h-430zM85 217v49h430v-49h-430z" />
    <glyph glyph-name="multiply.tab" horiz-adv-x="600" 
d="M299 319l-181 -183l-34 34l183 181l-183 181l36 36l181 -183l181 183l34 -34l-183 -181l183 -181l-36 -36z" />
    <glyph glyph-name="less.tab" horiz-adv-x="600" 
d="M67 333v38l438 236v-51l-383 -203l383 -205v-51z" />
    <glyph glyph-name="greater.tab" horiz-adv-x="600" 
d="M95 97v51l383 203l-383 205v51l438 -236v-38z" />
    <glyph glyph-name="plusminus.tab" horiz-adv-x="600" 
d="M325 358v-203h-50v203h-207v48h207v203h50v-203h207v-48h-207zM68 0v48h464v-48h-464z" />
    <glyph glyph-name="space.tab" horiz-adv-x="300" 
 />
    <glyph glyph-name="hfjslug" horiz-adv-x="694" 
d="M436 -200l-8 14h-163l-8 -14h-207v303q14 0 23 9t9 23q0 13 -9 22.5t-23 9.5v554h100l30 79h334l29 -79h101v-921h-208zM400 391h15v78h38v14h-38v66h43v14h-58v-172zM184 391h15v79h47v-79h15v172h-15v-79h-47v79h-15v-172zM460 394q10 -4 21 -4q31 0 31 36v137h-16
v-137q0 -22 -16 -22q-5 0 -10.5 1.5t-9.5 3.5v-15zM358 468q-2 -7 -4 -15t-4 -15h-1l-16 31q10 9 16.5 19.5t6.5 22.5q0 13 -6.5 22t-20.5 9q-13 0 -20.5 -9t-7.5 -22q0 -11 4 -19.5t10 -19.5q-23 -18 -23 -47q0 -17 8 -27t21 -10q19 0 29 24h1l12 -24l12 6l-17 32
q4 9 7 18.5t6 20.5zM523 277h8v12l8 8l15 -20h10l-20 26l18 20h-10l-20 -24h-1v24h-8v-46zM498 277h9l-12 17q10 4 10 14q0 15 -17 15h-20v-46h8v15h12zM426 276q11 0 17.5 7t6.5 17q0 9 -6.5 16.5t-17.5 7.5t-17.5 -7.5t-6.5 -16.5q0 -10 6.5 -17t17.5 -7zM357 323h-9
l18 -29v-17h8v17l18 29h-9l-13 -22zM193 277h34v7h-26v13h23v7h-23v12h26v7h-34v-46zM132 277h8v32l25 -32h7v46h-8v-32l-25 32h-7v-46zM255 276h8l11 34h1l11 -34h8l14 47h-8l-10 -35h-1l-11 35h-7l-11 -35h-1l-10 35h-8zM327 479l-8.5 17t-3.5 15q0 19 14 19q13 0 13 -19
q0 -16 -15 -32zM342 423q-8 -21 -20 -21q-16 0 -16 25q0 10 4.5 19t11.5 16zM476 299v17h11q10 0 10 -8q0 -9 -10 -9h-11zM426 283q-8 0 -12 5t-4 12q0 6 4 11.5t12 5.5t12 -5.5t4 -11.5q0 -7 -4 -12t-12 -5z" />
    <glyph glyph-name="i.dot" horiz-adv-x="249" 
d="M94 710h61v-67h-61v67zM100 510h49v-510h-49v510z" />
    <glyph glyph-name="zero.num" 
d="M199 304q-32 0 -58 15t-44 42t-27.5 64t-9.5 80v2q0 43 10 80t28 64.5t44 43t58 15.5t58 -15t44 -42t28 -64t10 -80v-2q0 -43 -10 -80t-28.5 -64.5t-44.5 -43t-58 -15.5zM199 675q-24 0 -42.5 -13t-31.5 -35.5t-19.5 -53t-6.5 -65.5v-2q0 -35 7 -65.5t19.5 -53
t31.5 -35.5t43 -13t43 13t31.5 35.5t19.5 53t7 65.5v2q0 35 -7 65.5t-20 53t-32 35.5t-43 13z" />
    <glyph glyph-name="one.num" horiz-adv-x="325" 
d="M165 314v352l-90 -34l-9 35l105 40h33v-393h-39z" />
    <glyph glyph-name="one.num_alt" 
d="M78 314v34h119v318l-105 -37l-9 35l120 43h33v-359h111v-34h-269z" />
    <glyph glyph-name="two.num" 
d="M61 347l149 132q42 36 61 63t19 58q0 32 -23.5 53.5t-58.5 21.5q-34 0 -60.5 -18t-49.5 -54l-30 18q25 40 58.5 64.5t84.5 24.5q25 0 47 -8.5t38 -23t25 -34.5t9 -42q0 -41 -23 -72.5t-70 -72.5l-122 -106h219v-37h-273v33z" />
    <glyph glyph-name="three.num" 
d="M198 304q-48 0 -83.5 20.5t-59.5 53.5l29 24q46 -63 115 -63q37 0 63 22.5t26 58.5q0 38 -32 59t-80 21h-28l-8 24l133 139h-198v37h248v-32l-128 -134q28 -2 52 -10t42 -22t28.5 -34.5t10.5 -47.5q0 -26 -10.5 -47.5t-28.5 -36.5t-41.5 -23.5t-49.5 -8.5z" />
    <glyph glyph-name="four.num" 
d="M295 312h-37v91h-190l-12 32l194 271h45v-269h55v-34h-55v-91zM258 656l-158 -219h158v219z" />
    <glyph glyph-name="five.num" 
d="M197 304q-42 0 -77.5 19t-61.5 49l28 26q51 -59 112 -59q46 0 73 26t27 63q0 39 -28 61t-71 22q-25 0 -47 -6t-43 -16l-27 16l13 195h225v-39h-192l-9 -130q19 8 39 12.5t44 4.5q28 0 53 -8t43.5 -23.5t29 -37t10.5 -48.5q0 -28 -11 -51.5t-30 -40t-45 -26t-55 -9.5z" />
    <glyph glyph-name="six.num" 
d="M198 305q-29 0 -53 10t-41 27q-20 20 -33 53.5t-13 96.5v2q0 48 11.5 87.5t32 68t48.5 44.5t62 16q37 0 61.5 -12.5t47.5 -35.5l-25 -27q-18 18 -38.5 29t-47.5 11q-23 0 -43.5 -13t-36.5 -35.5t-25 -54t-9 -68.5q17 23 42 39t67 16q25 0 48 -8.5t40 -25t27 -39.5t10 -51
q0 -27 -10 -51t-28 -41.5t-42 -27.5t-52 -10zM197 340q42 0 68.5 25.5t26.5 67.5t-24.5 66.5t-66.5 24.5t-69.5 -26t-27.5 -65q0 -41 27.5 -67t65.5 -26z" />
    <glyph glyph-name="seven.num" 
d="M114 312l176 349h-220v39h265v-29l-176 -359h-45z" />
    <glyph glyph-name="eight.num" 
d="M200 304q-61 0 -100.5 31t-39.5 81q0 35 21.5 59t53.5 38q-26 12 -44.5 34.5t-18.5 55.5q0 24 10.5 43.5t28.5 34t41.5 22t49.5 7.5q25 0 48 -8t41 -22t28.5 -33.5t10.5 -43.5q0 -33 -18 -55t-45 -35q32 -12 53.5 -37t21.5 -58q0 -26 -10.5 -47t-29.5 -36t-45 -23t-57 -8
zM201 675q-40 0 -65.5 -20t-25.5 -52t25.5 -53.5t65.5 -21.5t65.5 21.5t25.5 53.5t-25.5 52t-65.5 20zM201 496q-47 0 -75 -23t-28 -57t28 -55.5t75 -21.5t75 21.5t28 55.5t-28 57t-75 23z" />
    <glyph glyph-name="nine.num" 
d="M202 709q29 0 53 -10t41 -27q20 -20 33 -53.5t13 -96.5v-2q0 -49 -11.5 -89t-32 -68t-48.5 -43.5t-62 -15.5q-37 0 -64 13t-50 37l25 27q20 -20 40 -31t51 -11q23 0 43.5 12t36.5 34t25 53t9 68q-17 -23 -42 -39t-67 -16q-26 0 -48.5 8.5t-39.5 25t-27 40t-10 52.5
q0 28 10 52t28 42t42 28t52 10zM199 486q42 0 69.5 26t27.5 67q0 21 -7.5 38.5t-20.5 30t-29.5 19.5t-35.5 7q-42 0 -68.5 -26t-26.5 -69t24.5 -68t66.5 -25z" />
    <glyph glyph-name="zero.den" 
d="M199 -10q-32 0 -58 15t-44 42t-27.5 64t-9.5 80v2q0 43 10 80t28 64.5t44 43t58 15.5t58 -15t44 -42t28 -64t10 -80v-2q0 -43 -10 -80t-28.5 -64.5t-44.5 -43t-58 -15.5zM199 361q-24 0 -42.5 -13t-31.5 -35.5t-19.5 -53t-6.5 -65.5v-2q0 -35 7 -65.5t19.5 -53
t31.5 -35.5t43 -13t43 13t31.5 35.5t19.5 53t7 65.5v2q0 35 -7 65.5t-20 53t-32 35.5t-43 13z" />
    <glyph glyph-name="one.den" horiz-adv-x="325" 
d="M165 0v352l-90 -34l-9 35l105 40h33v-393h-39z" />
    <glyph glyph-name="one.den_alt" 
d="M78 0v34h119v318l-105 -37l-9 35l120 43h33v-359h111v-34h-269z" />
    <glyph glyph-name="two.den" 
d="M61 33l149 132q42 36 61 63t19 58q0 32 -23.5 53.5t-58.5 21.5q-34 0 -60.5 -18t-49.5 -54l-30 18q25 40 58.5 64.5t84.5 24.5q25 0 47 -8.5t38 -23t25 -34.5t9 -42q0 -41 -23 -72.5t-70 -72.5l-122 -106h219v-37h-273v33z" />
    <glyph glyph-name="three.den" 
d="M198 -10q-48 0 -83.5 20.5t-59.5 53.5l29 24q46 -63 115 -63q37 0 63 22.5t26 58.5q0 38 -32 59t-80 21h-28l-8 24l133 139h-198v37h248v-32l-128 -134q28 -2 52 -10t42 -22t28.5 -34.5t10.5 -47.5q0 -26 -10.5 -47.5t-28.5 -36.5t-41.5 -23.5t-49.5 -8.5z" />
    <glyph glyph-name="four.den" 
d="M295 -2h-37v91h-190l-12 32l194 271h45v-269h55v-34h-55v-91zM258 342l-158 -219h158v219z" />
    <glyph glyph-name="five.den" 
d="M197 -10q-42 0 -77.5 19t-61.5 49l28 26q51 -59 112 -59q46 0 73 26t27 63q0 39 -28 61t-71 22q-25 0 -47 -6t-43 -16l-27 16l13 195h225v-39h-192l-9 -130q19 8 39 12.5t44 4.5q28 0 53 -8t43.5 -23.5t29 -37t10.5 -48.5q0 -28 -11 -51.5t-30 -40t-45 -26t-55 -9.5z" />
    <glyph glyph-name="six.den" 
d="M198 -9q-29 0 -53 10t-41 27q-20 20 -33 53.5t-13 96.5v2q0 48 11.5 87.5t32 68t48.5 44.5t62 16q37 0 61.5 -12.5t47.5 -35.5l-25 -27q-18 18 -38.5 29t-47.5 11q-23 0 -43.5 -13t-36.5 -35.5t-25 -54t-9 -68.5q17 23 42 39t67 16q25 0 48 -8.5t40 -25t27 -39.5t10 -51
q0 -27 -10 -51t-28 -41.5t-42 -27.5t-52 -10zM197 26q42 0 68.5 25.5t26.5 67.5t-24.5 66.5t-66.5 24.5t-69.5 -26t-27.5 -65q0 -41 27.5 -67t65.5 -26z" />
    <glyph glyph-name="seven.den" 
d="M114 -2l176 349h-220v39h265v-29l-176 -359h-45z" />
    <glyph glyph-name="eight.den" 
d="M200 -10q-61 0 -100.5 31t-39.5 81q0 35 21.5 59t53.5 38q-26 12 -44.5 34.5t-18.5 55.5q0 24 10.5 43.5t28.5 34t41.5 22t49.5 7.5q25 0 48 -8t41 -22t28.5 -33.5t10.5 -43.5q0 -33 -18 -55t-45 -35q32 -12 53.5 -37t21.5 -58q0 -26 -10.5 -47t-29.5 -36t-45 -23t-57 -8
zM201 361q-40 0 -65.5 -20t-25.5 -52t25.5 -53.5t65.5 -21.5t65.5 21.5t25.5 53.5t-25.5 52t-65.5 20zM201 182q-47 0 -75 -23t-28 -57t28 -55.5t75 -21.5t75 21.5t28 55.5t-28 57t-75 23z" />
    <glyph glyph-name="nine.den" 
d="M202 395q29 0 53 -10t41 -27q20 -20 33 -53.5t13 -96.5v-2q0 -49 -11.5 -89t-32 -68t-48.5 -43.5t-62 -15.5q-37 0 -64 13t-50 37l25 27q20 -20 40 -31t51 -11q23 0 43.5 12t36.5 34t25 53t9 68q-17 -23 -42 -39t-67 -16q-26 0 -48.5 8.5t-39.5 25t-27 40t-10 52.5
q0 28 10 52t28 42t42 28t52 10zM199 172q42 0 69.5 26t27.5 67q0 21 -7.5 38.5t-20.5 30t-29.5 19.5t-35.5 7q-42 0 -68.5 -26t-26.5 -69t24.5 -68t66.5 -25z" />
    <glyph glyph-name="caron.alt" horiz-adv-x="500" 
d="M228 730h61v-3l-49 -146h-29z" />
    <glyph glyph-name="acute.cap" horiz-adv-x="500" 
d="M284 883l59 -28l-107 -90h-45z" />
    <glyph glyph-name="hungarumlaut.cap" horiz-adv-x="500" 
d="M199 883l59 -28l-107 -90h-45zM339 883l59 -28l-107 -90h-45z" />
    <glyph glyph-name="grave.cap" horiz-adv-x="500" 
d="M264 765l-107 90l59 28l93 -118h-45z" />
    <glyph glyph-name="circumflex.cap" horiz-adv-x="500" 
d="M227 872h46l103 -107h-54l-73 61l-73 -61h-52z" />
    <glyph glyph-name="caron.cap" horiz-adv-x="500" 
d="M273 765h-46l-103 107h54l73 -61l73 61h52z" />
    <glyph glyph-name="breve.cap" horiz-adv-x="500" 
d="M250 763q-56 0 -92.5 26t-40.5 74h44q8 -24 30 -38t59 -14t59 14t30 38h44q-4 -48 -40.5 -74t-92.5 -26z" />
    <glyph glyph-name="tilde.cap" horiz-adv-x="500" 
d="M315 765q-15 0 -32.5 6.5t-37.5 14.5q-14 6 -29.5 11.5t-26.5 5.5q-18 0 -28.5 -10.5t-21.5 -36.5l-37 10q14 48 33.5 68t48.5 20q15 0 32.5 -6.5t37.5 -14.5q14 -6 29.5 -11.5t26.5 -5.5q18 0 28.5 10t21.5 36l37 -10q-14 -48 -33.5 -67.5t-48.5 -19.5z" />
    <glyph glyph-name="macron.cap" horiz-adv-x="500" 
d="M95 840h310v-49h-310v49z" />
    <glyph glyph-name="dieresis.cap" horiz-adv-x="500" 
d="M301 841h73v-76h-73v76zM125 841h74v-76h-74v76z" />
    <glyph glyph-name="dotaccent.cap" horiz-adv-x="500" 
d="M212 841h76v-76h-76v76z" />
    <glyph glyph-name="ring.cap" horiz-adv-x="500" 
d="M250 763q-44 0 -75 27t-31 68t31 68t75 27t75 -27t31 -68t-31 -68t-75 -27zM250 795q29 0 48.5 18t19.5 45t-19.5 45t-48.5 18t-48.5 -18t-19.5 -45t19.5 -45t48.5 -18z" />
    </font>
</defs>
</svg>
